VERSION	0.00.00	1.03.00
FES_MODE	0
BPM_DEF	132.000	132.000	132.000	132.000
MET_DEF	4	4
RESOLUTION	384
CLK_DEF	384
COMPATIBLE_CODE	MA2

BPM	0	0	132.000
MET	0	0	4	4
MET	37	0	4	2
MET	37	192	4	4

TAP	5	0	7
TAP	5	96	7
TAP	5	192	7
TAP	6	0	6
TAP	6	96	6
TAP	6	192	6
TAP	7	0	5
TAP	7	96	5
TAP	7	192	5
TAP	8	0	4
TAP	8	96	4
TAP	8	192	4
TAP	9	0	3
TAP	9	96	3
TAP	9	192	3
TAP	10	0	2
TAP	10	96	2
TAP	10	192	2
TAP	11	0	1
TAP	11	96	1
TAP	11	192	1
TAP	12	0	0
TAP	12	96	0
TAP	12	192	0
HLD	13	0	6	384
HLD	13	0	7	384
HLD	15	0	0	384
HLD	15	0	1	384
HLD	17	0	2	384
HLD	17	0	3	384
HLD	19	0	4	384
HLD	19	0	5	384
TAP	21	0	6
TAP	21	96	6
TAP	21	192	6
TAP	22	0	5
TAP	22	96	5
TAP	22	192	5
TAP	23	0	4
TAP	23	96	4
TAP	23	192	4
TAP	24	0	3
TAP	24	0	4
TAP	24	96	3
TAP	24	96	4
TAP	24	192	3
TAP	24	192	4
TAP	25	0	3
TAP	25	96	3
TAP	25	192	3
TAP	26	0	2
TAP	26	96	2
TAP	26	192	2
TAP	27	0	1
TAP	27	96	1
TAP	27	192	1
TAP	28	0	0
TAP	28	0	1
TAP	28	96	0
TAP	28	96	1
TAP	28	192	0
TAP	28	192	1
STR	29	0	7
SI_	29	0	7	96	288	3
STR	31	0	0
SI_	31	0	0	96	288	4
STR	33	0	7
SI_	33	0	7	96	288	2
STR	35	0	0
SI_	35	0	0	96	288	5
TAP	37	192	7
TAP	37	288	7
TAP	38	0	7
TAP	38	96	7
TAP	38	192	6
TAP	38	288	6
TAP	39	0	6
TAP	39	192	5
TAP	39	288	5
TAP	40	0	5
TAP	40	96	5
TAP	40	192	4
TAP	40	288	4
TAP	41	0	3
TAP	41	0	4
TAP	41	192	3
TAP	41	288	3
TAP	42	0	3
TAP	42	96	3
TAP	42	192	2
TAP	42	288	2
TAP	43	0	2
TAP	43	192	1
TAP	43	288	1
TAP	44	0	1
TAP	44	96	1
TAP	44	192	0
TAP	44	288	0
TAP	45	0	0
TAP	45	0	7
TAP	45	192	1
TAP	45	288	1
TAP	46	0	1
TAP	46	96	1
TAP	46	192	2
TAP	46	288	2
TAP	47	0	2
TAP	47	192	3
TAP	47	288	3
TAP	48	0	3
TAP	48	96	3
TAP	48	192	4
TAP	48	288	4
TAP	49	0	3
TAP	49	0	4
TAP	49	192	5
TAP	49	288	5
TAP	50	0	5
TAP	50	96	5
TAP	50	192	6
TAP	50	288	6
TAP	51	0	6
TAP	51	192	7
TAP	51	288	7
TAP	52	0	7
TAP	52	96	7
TAP	52	192	0
TAP	52	288	0
BRK	53	0	0
BRK	53	0	7
HLD	53	192	0	192
HLD	53	192	7	192
TAP	54	192	1
TAP	54	288	1
TAP	55	0	0
TAP	55	96	0
BRK	55	192	7

T_REC_TAP	116
T_REC_BRK	3
T_REC_XTP	0
T_REC_HLD	10
T_REC_XHO	0
T_REC_STR	4
T_REC_BST	0
T_REC_XST	0
T_REC_TTP	0
T_REC_THO	0
T_REC_SLD	4
T_REC_ALL	137
T_NUM_TAP	120
T_NUM_BRK	3
T_NUM_HLD	10
T_NUM_SLD	4
T_NUM_ALL	137
T_JUDGE_TAP	123
T_JUDGE_HLD	72
T_JUDGE_SLD	4
T_JUDGE_ALL	199
TTM_EACHPAIRS	15
TTM_SCR_TAP	60000
TTM_SCR_BRK	7800
TTM_SCR_HLD	10000
TTM_SCR_SLD	6000
TTM_SCR_ALL	83800
TTM_SCR_S	81000
TTM_SCR_SS	83500
TTM_RAT_ACV	10035

