VERSION	0.00.00	1.03.00
FES_MODE	0
BPM_DEF	128.000	128.000	128.000	128.000
MET_DEF	4	4
RESOLUTION	384
CLK_DEF	384
COMPATIBLE_CODE	MA2

BPM	0	0	128.000
MET	0	0	4	4

TAP	1	0	1
TAP	1	0	6
STR	1	192	0
SI_	1	192	0	96	48	4
STR	1	192	7
SI_	1	192	7	96	48	3
BRK	1	288	0
BRK	1	288	7
HLD	2	0	2	384
TAP	2	96	3
TAP	2	288	3
HLD	3	0	5	384
TAP	3	96	4
TAP	3	288	4
HLD	4	0	1	384
TAP	4	96	3
TAP	4	288	3
HLD	5	0	6	384
TAP	5	96	4
TAP	5	288	4
STR	6	0	1
SI_	6	0	1	96	48	4
TAP	6	96	1
TAP	6	96	5
STR	6	192	1
SI_	6	192	1	96	48	4
TAP	6	288	1
TAP	6	288	5
STR	7	0	1
SI_	7	0	1	96	48	5
TAP	7	96	1
TAP	7	96	4
STR	7	192	1
SI_	7	192	1	96	48	5
TAP	7	288	1
TAP	7	288	4
STR	8	0	1
SI_	8	0	1	96	48	5
TAP	8	96	1
TAP	8	96	3
TAP	8	192	2
TAP	8	192	5
STR	8	288	0
SI_	8	288	0	96	48	4
STR	8	288	7
SI_	8	288	7	96	48	3
TAP	9	0	0
TAP	9	0	7
TAP	9	192	3
TAP	9	208	4
TAP	9	224	3
TAP	9	240	4
TAP	9	264	0
TAP	9	288	7
TAP	9	336	1
TAP	9	336	6
TAP	10	0	4
TAP	10	0	6
TAP	10	48	5
TAP	10	96	1
TAP	10	96	3
TAP	10	144	2
TAP	10	192	4
TAP	10	192	6
TAP	10	240	5
TAP	10	288	1
TAP	10	288	3
STR	10	336	2
SI_	10	336	2	96	48	5
SI_	10	336	2	96	48	7
TAP	11	48	2
HLD	11	144	1	96
TAP	11	192	0
HLD	11	240	6	96
TAP	11	288	7
HLD	11	336	1	48
STR	12	0	0
SI_	12	0	0	96	48	3
SI_	12	0	0	96	48	5
TAP	12	96	0
HLD	12	192	1	96
TAP	12	240	3
HLD	12	288	6	96
TAP	12	336	4
STR	13	0	1
SI_	13	0	1	96	48	4
SI_	13	0	1	96	48	6
TAP	13	96	1
TAP	13	240	6
STR	13	240	7
SI_	13	240	7	96	48	3
TAP	13	336	2
TAP	13	336	7
TAP	14	48	6
STR	14	48	7
SI_	14	48	7	96	48	3
TAP	14	144	2
TAP	14	144	7
TAP	14	240	6
STR	14	240	7
SI_	14	240	7	96	48	3
STR	14	336	2
SI_	14	336	2	96	48	5
SI_	14	336	2	96	48	7
TAP	14	336	7
TAP	15	48	2
TAP	15	144	2
TAP	15	144	7
STR	15	240	0
SI_	15	240	0	96	48	4
TAP	15	240	1
TAP	15	336	0
TAP	15	336	5
STR	16	48	0
SI_	16	48	0	96	48	4
TAP	16	48	1
TAP	16	144	0
TAP	16	144	5
STR	16	240	0
SXR	16	240	0	96	144	4
TAP	16	240	1
BRK	16	336	0
HLD	16	336	5	144
TAP	17	192	3
TAP	17	208	4
TAP	17	224	3
TAP	17	240	4
TAP	17	264	0
TAP	17	288	7
TAP	17	336	1
TAP	17	336	6
TAP	18	0	1
TAP	18	0	3
TAP	18	48	2
TAP	18	96	4
TAP	18	96	6
TAP	18	144	5
TAP	18	192	0
TAP	18	192	3
TAP	18	240	1
TAP	18	288	4
TAP	18	288	7
STR	18	336	6
SCL	18	336	6	96	48	3
SCR	18	336	6	96	48	1
TAP	19	48	6
HLD	19	144	2	96
TAP	19	144	3
TAP	19	192	0
HLD	19	240	3	96
TAP	19	288	7
HLD	19	336	2	48
STR	20	0	0
SCL	20	0	0	96	48	5
SCR	20	0	0	96	48	3
TAP	20	96	0
TAP	20	192	4
HLD	20	192	5	96
TAP	20	240	7
HLD	20	288	4	96
TAP	20	336	0
STR	21	0	5
SCL	21	0	5	96	48	2
SCR	21	0	5	96	48	0
TAP	21	96	5
TAP	21	240	0
STR	21	240	6
SI_	21	240	6	96	48	2
TAP	21	336	4
TAP	21	336	6
TAP	22	48	0
STR	22	48	6
SI_	22	48	6	96	48	2
TAP	22	144	4
TAP	22	144	6
TAP	22	240	6
TAP	22	240	7
TAP	22	288	5
TAP	22	336	4
TAP	23	0	0
TAP	23	0	1
TAP	23	72	3
TAP	23	72	4
TAP	23	144	6
TAP	23	144	7
TAP	23	240	0
STR	23	240	1
SI_	23	240	1	96	48	5
TAP	23	336	1
TAP	23	336	4
TAP	24	48	0
STR	24	48	1
SI_	24	48	1	96	48	5
TAP	24	144	1
TAP	24	144	4
TAP	24	240	0
STR	24	240	1
SXR	24	240	1	96	144	5
BRK	24	336	1
HLD	24	336	4	144
TAP	25	144	3
TAP	25	144	4
TAP	25	192	5
STR	25	240	6
SV_	25	240	6	96	48	3
TAP	25	240	7
TAP	25	288	0
STR	25	336	2
SI_	25	336	2	96	48	6
STR	26	48	7
SUR	26	48	7	96	48	3
TAP	26	96	7
STR	26	144	2
SI_	26	144	2	96	48	6
STR	26	240	0
SI_	26	240	0	96	48	3
TAP	26	288	0
TAP	26	336	2
TAP	27	48	1
TAP	27	48	5
TAP	27	144	3
TAP	27	144	4
TAP	27	192	2
TAP	27	240	0
STR	27	240	1
SV_	27	240	1	96	48	4
TAP	27	288	7
STR	27	336	5
SI_	27	336	5	96	48	1
STR	28	48	0
SUL	28	48	0	96	48	4
TAP	28	96	0
STR	28	144	5
SI_	28	144	5	96	48	1
STR	28	240	7
SI_	28	240	7	96	48	4
TAP	28	288	7
TAP	28	336	5
TAP	29	48	2
TAP	29	48	6
TAP	29	144	3
TAP	29	144	4
TAP	29	192	5
STR	29	240	6
SV_	29	240	6	96	48	3
TAP	29	240	7
TAP	29	288	0
STR	29	336	2
SI_	29	336	2	96	48	6
STR	30	48	7
SUR	30	48	7	96	48	3
TAP	30	96	7
STR	30	144	2
SI_	30	144	2	96	48	6
STR	30	240	0
SI_	30	240	0	96	48	3
TAP	30	288	0
TAP	30	336	2
TAP	31	48	1
TAP	31	48	5
TAP	31	144	4
TAP	31	192	2
TAP	31	192	6
TAP	31	240	0
TAP	31	288	2
TAP	31	288	6
TAP	31	336	4
TAP	32	0	3
TAP	32	48	4
TAP	32	96	1
TAP	32	96	6
TAP	32	192	0
TAP	32	192	6
TAP	32	240	2
TAP	32	240	4
TAP	32	288	3
TAP	32	288	5
STR	32	336	1
SI_	32	336	1	96	48	4
STR	32	336	7
SI_	32	336	7	96	48	4
BRK	33	48	1
BRK	33	48	7
TAP	33	144	0
TAP	33	144	7
TAP	33	192	6
TAP	33	240	4
STR	33	240	5
SV_	33	240	5	96	48	0
TAP	33	288	3
STR	33	336	1
SI_	33	336	1	96	48	5
STR	34	48	4
SUL	34	48	4	96	48	0
TAP	34	96	4
STR	34	144	1
SI_	34	144	1	96	48	5
STR	34	240	3
SI_	34	240	3	96	48	0
TAP	34	288	3
TAP	34	336	1
TAP	35	48	2
TAP	35	48	6
TAP	35	144	0
TAP	35	144	7
TAP	35	192	1
STR	35	240	2
SV_	35	240	2	96	48	7
TAP	35	240	3
TAP	35	288	4
STR	35	336	6
SI_	35	336	6	96	48	2
STR	36	48	3
SUR	36	48	3	96	48	7
TAP	36	96	3
STR	36	144	6
SI_	36	144	6	96	48	2
STR	36	240	4
SI_	36	240	4	96	48	7
TAP	36	288	4
TAP	36	336	6
TAP	37	48	1
TAP	37	48	5
TAP	37	144	0
TAP	37	144	7
TAP	37	192	6
TAP	37	240	4
STR	37	240	5
SV_	37	240	5	96	48	0
TAP	37	288	3
STR	37	336	1
SI_	37	336	1	96	48	5
STR	38	48	4
SUL	38	48	4	96	48	0
TAP	38	96	4
STR	38	144	1
SI_	38	144	1	96	48	5
STR	38	240	3
SI_	38	240	3	96	48	0
TAP	38	288	3
TAP	38	336	1
TAP	39	48	2
TAP	39	48	6
TAP	39	144	3
TAP	39	192	1
TAP	39	192	5
TAP	39	240	7
TAP	39	288	1
TAP	39	288	5
TAP	39	336	3
TAP	40	0	4
TAP	40	48	3
TAP	40	96	1
TAP	40	96	6
TAP	40	192	4
TAP	40	192	6
TAP	40	240	5
TAP	40	288	1
TAP	40	288	3
TAP	40	336	2
TAP	41	0	0
TAP	41	0	1
TAP	41	72	3
TAP	41	72	4
BRK	41	144	6
BST	41	144	7
SUR	41	144	7	96	48	3
STR	41	240	5
SUR	41	240	5	96	48	1
TAP	41	288	5
STR	41	336	2
SUL	41	336	2	96	48	6
STR	42	48	5
SUR	42	48	5	96	48	1
TAP	42	96	5
STR	42	144	2
SUL	42	144	2	96	48	6
TAP	42	240	5
STR	42	336	0
SCL	42	336	0	96	48	5
STR	42	336	1
SCR	42	336	1	96	48	4
TAP	43	48	0
TAP	43	48	1
BRK	43	144	2
BRK	43	144	6
TAP	43	240	0
STR	43	240	1
SUR	43	240	1	96	48	5
TAP	43	288	7
STR	43	336	6
SUL	43	336	6	96	48	2
STR	44	48	1
SUR	44	48	1	96	48	5
TAP	44	96	1
STR	44	144	6
SUL	44	144	6	96	48	2
TAP	44	240	1
TAP	44	336	6
TAP	44	336	7
TAP	45	48	3
TAP	45	96	4
TAP	45	144	1
TAP	45	144	6
TAP	45	240	2
STR	45	240	7
SUL	45	240	7	96	48	3
TAP	45	288	1
STR	45	336	0
SUR	45	336	0	96	48	4
STR	46	48	7
SUL	46	48	7	96	48	3
TAP	46	96	7
STR	46	144	0
SUR	46	144	0	96	48	4
TAP	46	240	7
STR	46	336	2
SCL	46	336	2	96	48	7
STR	46	336	6
SCL	46	336	6	96	48	3
TAP	47	48	2
TAP	47	48	6
BRK	47	144	1
BRK	47	144	5
STR	47	240	3
SUL	47	240	3	96	48	7
TAP	47	240	6
TAP	47	288	5
STR	47	336	4
SUR	47	336	4	96	48	0
STR	48	48	3
SUL	48	48	3	96	48	7
TAP	48	96	3
STR	48	144	4
SUR	48	144	4	96	48	0
TAP	48	240	3
TAP	48	336	1
TAP	48	336	5
TAP	49	48	6
TAP	49	48	7
TAP	49	96	2
TAP	49	96	3
STR	49	144	0
SI_	49	144	0	96	48	5
STR	49	144	1
SI_	49	144	1	96	48	4
TAP	49	240	0
TAP	49	240	1
TAP	49	336	2
STR	49	336	4
SCL	49	336	4	96	144	5
HLD	50	0	2	192
BRK	50	0	4
TAP	50	288	1
TAP	50	288	7
STR	50	336	0
SXL	50	336	0	96	48	2
STR	50	336	6
SXR	50	336	6	96	48	4
TAP	51	48	0
TAP	51	48	6
BRK	51	144	1
BRK	51	144	5
STR	51	240	4
SUR	51	240	4	96	48	1
TAP	51	240	6
TAP	51	288	3
STR	51	336	2
SV_	51	336	2	96	48	5
STR	52	48	4
SUR	52	48	4	96	48	1
TAP	52	96	4
STR	52	144	2
SV_	52	144	2	96	48	7
TAP	52	240	4
TAP	52	336	2
TAP	52	336	6
TAP	53	48	5
TAP	53	96	1
BRK	53	144	3
BRK	53	144	7
TAP	53	240	2
STR	53	240	4
SUL	53	240	4	96	48	7
TAP	53	288	5
STR	53	336	6
SV_	53	336	6	96	48	3
STR	54	48	4
SUL	54	48	4	96	48	7
TAP	54	96	4
STR	54	144	6
SV_	54	144	6	96	48	1
TAP	54	240	4
STR	54	336	3
SXR	54	336	3	96	48	1
STR	54	336	7
SXR	54	336	7	96	48	5
TAP	55	48	3
TAP	55	48	7
BRK	55	144	2
BRK	55	144	6
STR	55	240	3
SUR	55	240	3	96	48	0
TAP	55	240	5
TAP	55	288	2
STR	55	336	1
SV_	55	336	1	96	48	4
STR	56	48	3
SUR	56	48	3	96	48	0
TAP	56	96	3
STR	56	144	1
SV_	56	144	1	96	48	6
TAP	56	240	3
TAP	56	336	1
TAP	56	336	5
TAP	57	48	0
TAP	57	48	1
TAP	57	96	4
TAP	57	96	5
STR	57	144	6
SI_	57	144	6	96	48	3
STR	57	144	7
SI_	57	144	7	96	48	2
TAP	57	240	6
TAP	57	240	7
TAP	57	336	3
TAP	57	336	7
BST	58	0	1
SUR	58	0	1	96	240	4
HLD	58	0	5	336

T_REC_TAP	283
T_REC_BRK	18
T_REC_XTP	0
T_REC_HLD	18
T_REC_XHO	0
T_REC_STR	100
T_REC_BST	2
T_REC_XST	0
T_REC_TTP	0
T_REC_THO	0
T_REC_SLD	109
T_REC_ALL	530
T_NUM_TAP	383
T_NUM_BRK	20
T_NUM_HLD	18
T_NUM_SLD	109
T_NUM_ALL	530
T_JUDGE_TAP	403
T_JUDGE_HLD	67
T_JUDGE_SLD	109
T_JUDGE_ALL	579
TTM_EACHPAIRS	121
TTM_SCR_TAP	191500
TTM_SCR_BRK	52000
TTM_SCR_HLD	18000
TTM_SCR_SLD	163500
TTM_SCR_ALL	425000
TTM_SCR_S	410350
TTM_SCR_SS	423000
TTM_RAT_ACV	10047

