VERSION	0.00.00	1.03.00
FES_MODE	0
BPM_DEF	128.000	128.000	128.000	128.000
MET_DEF	4	4
RESOLUTION	384
CLK_DEF	384
COMPATIBLE_CODE	MA2

BPM	0	0	128.000
MET	0	0	4	4

STR	1	0	0
SCR	1	0	0	96	168	3
STR	1	0	7
SCL	1	0	7	96	168	4
TAP	2	0	3
TAP	2	96	2
TAP	2	96	3
TAP	2	288	2
TAP	2	288	3
TAP	3	0	4
TAP	3	96	4
TAP	3	96	5
TAP	3	288	4
TAP	3	288	5
TAP	4	0	3
TAP	4	96	1
TAP	4	96	3
TAP	4	288	1
TAP	4	288	3
TAP	5	0	4
TAP	5	96	4
TAP	5	96	6
TAP	5	288	4
TAP	5	288	6
TAP	6	0	3
TAP	6	96	2
TAP	6	96	3
TAP	6	192	2
TAP	6	288	1
TAP	6	288	3
TAP	7	0	4
TAP	7	96	4
TAP	7	96	5
TAP	7	192	5
TAP	7	288	4
TAP	7	288	6
TAP	8	0	3
TAP	8	96	1
TAP	8	96	3
TAP	8	192	4
TAP	8	288	4
TAP	8	288	6
BRK	9	0	3
BRK	9	0	7
TAP	9	192	3
HLD	9	240	3	96
TAP	9	336	4
HLD	10	48	5	96
TAP	10	144	4
HLD	10	240	2	96
TAP	10	336	4
TAP	11	48	0
TAP	11	48	6
TAP	11	144	7
HLD	11	192	7	96
HLD	11	288	6	96
STR	12	0	5
SI_	12	0	5	96	72	2
TAP	12	96	1
HLD	12	192	1	96
HLD	12	288	2	96
TAP	13	0	3
TAP	13	96	1
TAP	13	96	5
TAP	13	192	4
HLD	13	240	4	96
TAP	13	336	3
HLD	14	48	2	96
TAP	14	144	3
HLD	14	240	5	96
TAP	14	336	3
TAP	15	48	1
TAP	15	48	7
TAP	15	144	3
TAP	15	144	5
HLD	15	240	3	96
TAP	15	336	4
HLD	16	48	5	96
TAP	16	144	4
STR	16	240	2
SCR	16	240	2	96	144	6
TAP	16	336	4
TAP	17	192	7
HLD	17	240	7	96
TAP	17	336	0
HLD	18	48	1	96
TAP	18	144	0
HLD	18	240	6	96
TAP	18	336	0
TAP	19	48	2
TAP	19	48	4
TAP	19	144	3
HLD	19	192	3	96
HLD	19	288	2	96
STR	20	0	1
SI_	20	0	1	96	72	6
TAP	20	96	5
HLD	20	192	5	96
HLD	20	288	6	96
TAP	21	0	7
TAP	21	96	1
TAP	21	96	5
TAP	21	192	0
HLD	21	240	0	96
TAP	21	336	7
HLD	22	48	6	96
TAP	22	144	7
TAP	22	240	1
TAP	22	288	1
TAP	22	336	7
HLD	23	0	7	72
TAP	23	72	6
TAP	23	144	0
TAP	23	144	5
TAP	23	240	7
TAP	23	288	7
TAP	23	336	0
TAP	24	48	1
TAP	24	96	1
TAP	24	144	0
TAP	24	240	6
STR	24	288	6
SLL	24	288	6	96	96	2
TAP	24	336	0
HLD	25	144	1	192
TAP	25	240	3
TAP	25	288	2
HLD	25	336	5	192
TAP	26	48	3
TAP	26	96	4
HLD	26	144	1	192
TAP	26	240	3
TAP	26	288	2
HLD	26	336	5	192
TAP	27	48	3
TAP	27	96	4
HLD	27	144	2	192
TAP	27	240	4
TAP	27	288	3
HLD	27	336	6	192
TAP	28	48	4
TAP	28	96	5
HLD	28	144	2	192
TAP	28	240	4
TAP	28	288	3
HLD	28	336	6	192
TAP	29	48	3
TAP	29	96	4
HLD	29	144	1	192
TAP	29	240	3
TAP	29	288	2
HLD	29	336	5	192
TAP	30	48	3
TAP	30	96	4
HLD	30	144	1	192
TAP	30	240	3
TAP	30	288	2
TAP	30	336	5
TAP	31	48	3
TAP	31	48	6
TAP	31	144	4
TAP	31	192	5
TAP	31	240	3
STR	31	288	2
SCR	31	288	2	96	48	5
TAP	32	96	1
TAP	32	96	6
TAP	32	192	7
TAP	32	240	6
TAP	32	288	0
STR	32	336	1
SCR	32	336	1	96	48	4
TAP	33	48	5
HLD	33	144	6	192
TAP	33	240	4
TAP	33	288	5
HLD	33	336	2	192
TAP	34	48	4
TAP	34	96	3
HLD	34	144	6	192
TAP	34	240	4
TAP	34	288	5
HLD	34	336	2	192
TAP	35	48	4
TAP	35	96	3
HLD	35	144	5	192
TAP	35	240	3
TAP	35	288	4
HLD	35	336	1	192
TAP	36	48	3
TAP	36	96	2
HLD	36	144	5	192
TAP	36	240	3
TAP	36	288	4
HLD	36	336	1	192
TAP	37	48	4
TAP	37	96	3
HLD	37	144	6	192
TAP	37	240	4
TAP	37	288	5
HLD	37	336	2	192
TAP	38	48	4
TAP	38	96	3
HLD	38	144	6	192
TAP	38	240	4
TAP	38	288	5
TAP	38	336	2
TAP	39	48	1
TAP	39	48	4
TAP	39	144	3
TAP	39	192	2
TAP	39	240	4
STR	39	288	5
SCL	39	288	5	96	48	2
TAP	40	96	1
TAP	40	96	6
TAP	40	192	0
TAP	40	240	1
TAP	40	288	7
TAP	40	336	6
HLD	41	0	0	72
TAP	41	72	1
BRK	41	144	3
HLD	41	144	6	192
TAP	41	240	4
TAP	41	288	5
HLD	41	336	0	192
TAP	42	48	3
TAP	42	96	2
HLD	42	144	6	192
TAP	42	240	4
TAP	42	288	5
HLD	42	336	0	192
TAP	43	48	1
HLD	43	144	7	192
TAP	43	240	4
TAP	43	288	5
HLD	43	336	1	192
TAP	44	48	3
TAP	44	96	2
HLD	44	144	7	192
TAP	44	240	4
TAP	44	288	5
HLD	44	336	1	96
TAP	45	48	2
TAP	45	144	2
HLD	45	144	7	192
TAP	45	240	5
TAP	45	288	6
HLD	45	336	1	192
TAP	46	48	4
TAP	46	96	3
HLD	46	144	7	192
TAP	46	240	5
TAP	46	288	6
HLD	46	336	1	192
TAP	47	48	2
HLD	47	144	6	192
TAP	47	240	4
TAP	47	288	5
HLD	47	336	1	192
TAP	48	48	3
TAP	48	96	2
HLD	48	144	6	192
TAP	48	240	4
TAP	48	288	5
STR	48	336	1
SI_	48	336	1	96	48	4
STR	49	48	5
SI_	49	48	5	96	48	0
HLD	49	144	1	192
TAP	49	240	3
TAP	49	288	2
HLD	49	336	7	192
TAP	50	48	4
TAP	50	96	5
HLD	50	144	1	192
TAP	50	240	3
TAP	50	288	2
HLD	50	336	7	192
TAP	51	48	6
HLD	51	144	0	192
TAP	51	240	3
TAP	51	288	2
HLD	51	336	6	192
TAP	52	48	4
TAP	52	96	5
HLD	52	144	0	192
TAP	52	240	3
TAP	52	288	2
HLD	52	336	6	96
TAP	53	48	5
HLD	53	144	0	192
TAP	53	144	5
TAP	53	240	2
TAP	53	288	1
HLD	53	336	6	192
TAP	54	48	3
TAP	54	96	4
HLD	54	144	0	192
TAP	54	240	2
TAP	54	288	1
HLD	54	336	6	192
TAP	55	48	1
HLD	55	144	0	192
TAP	55	240	4
TAP	55	288	3
HLD	55	336	7	192
TAP	56	48	3
TAP	56	96	4
HLD	56	144	0	192
TAP	56	240	4
TAP	56	288	3
STR	56	336	7
SI_	56	336	7	96	48	2
STR	57	48	0
SI_	57	48	0	96	48	5
STR	57	144	6
SI_	57	144	6	96	48	3
STR	57	240	1
SI_	57	240	1	96	48	4
STR	57	336	5
SXL	57	336	5	96	240	3
BRK	58	0	5

T_REC_TAP	213
T_REC_BRK	4
T_REC_XTP	0
T_REC_HLD	75
T_REC_XHO	0
T_REC_STR	16
T_REC_BST	0
T_REC_XST	0
T_REC_TTP	0
T_REC_THO	0
T_REC_SLD	16
T_REC_ALL	324
T_NUM_TAP	229
T_NUM_BRK	4
T_NUM_HLD	75
T_NUM_SLD	16
T_NUM_ALL	324
T_JUDGE_TAP	233
T_JUDGE_HLD	250
T_JUDGE_SLD	16
T_JUDGE_ALL	499
TTM_EACHPAIRS	30
TTM_SCR_TAP	114500
TTM_SCR_BRK	10400
TTM_SCR_HLD	75000
TTM_SCR_SLD	24000
TTM_SCR_ALL	223900
TTM_SCR_S	216800
TTM_SCR_SS	223500
TTM_RAT_ACV	10017

