VERSION	0.00.00	1.03.00
FES_MODE	0
BPM_DEF	128.000	128.000	128.000	128.000
MET_DEF	4	4
RESOLUTION	384
CLK_DEF	384
COMPATIBLE_CODE	MA2

BPM	0	0	128.000
MET	0	0	4	4

STR	1	0	0
SI_	1	0	0	96	192	3
STR	1	0	7
SI_	1	0	7	96	192	4
TAP	2	0	3
TAP	2	0	4
TAP	2	96	2
TAP	2	96	5
TAP	2	288	2
TAP	2	288	5
TAP	3	96	2
TAP	3	96	5
TAP	3	288	2
TAP	3	288	5
TAP	4	0	3
TAP	4	0	4
TAP	4	96	2
TAP	4	96	5
TAP	4	288	2
TAP	4	288	5
TAP	5	96	2
TAP	5	96	5
TAP	5	288	2
TAP	5	288	5
TAP	6	0	4
TAP	6	0	5
TAP	6	96	6
TAP	6	192	4
TAP	6	192	5
TAP	6	288	3
TAP	7	0	4
TAP	7	0	5
TAP	7	96	6
TAP	7	192	4
TAP	7	192	5
TAP	8	0	2
TAP	8	0	3
TAP	8	96	1
TAP	8	192	2
TAP	8	192	3
TAP	8	288	4
TAP	9	0	2
TAP	9	0	3
TAP	9	192	0
TAP	9	192	7
BRK	9	288	0
BRK	9	288	7
HLD	10	0	5	96
TAP	10	96	4
HLD	10	192	2	96
TAP	10	288	3
TAP	11	0	3
TAP	11	0	4
TAP	11	192	6
TAP	11	288	5
TAP	11	288	7
HLD	12	0	0	96
HLD	12	0	4	96
TAP	12	192	1
TAP	12	288	0
TAP	12	288	2
HLD	13	0	3	96
HLD	13	0	7	96
TAP	13	192	2
TAP	13	288	1
STR	14	0	0
SI_	14	0	0	96	96	3
STR	14	192	7
SI_	14	192	7	96	96	4
STR	15	0	0
SI_	15	0	0	96	96	4
TAP	15	192	5
TAP	15	288	6
STR	16	0	7
SI_	16	0	7	96	96	4
STR	16	192	0
SI_	16	192	0	96	96	3
STR	17	0	7
SI_	17	0	7	96	96	3
TAP	17	288	2
TAP	17	288	5
HLD	18	0	2	96
TAP	18	96	3
HLD	18	192	5	96
TAP	18	288	4
TAP	19	0	3
TAP	19	0	4
TAP	19	192	2
TAP	19	288	1
TAP	19	288	3
HLD	20	0	0	96
HLD	20	0	4	96
TAP	20	192	5
TAP	20	288	4
TAP	20	288	6
HLD	21	0	3	96
HLD	21	0	7	96
TAP	21	192	6
TAP	21	288	5
STR	22	0	4
SI_	22	0	4	96	96	7
STR	22	192	3
SI_	22	192	3	96	96	0
STR	23	0	4
SI_	23	0	4	96	96	0
TAP	23	192	1
TAP	23	288	2
STR	24	0	3
SI_	24	0	3	96	96	0
STR	24	192	4
SI_	24	192	4	96	96	7
BRK	25	0	0
TAP	25	192	3
TAP	25	192	4
TAP	25	288	2
TAP	25	288	5
TAP	26	0	2
TAP	26	96	1
TAP	26	96	3
TAP	26	192	5
TAP	26	288	4
TAP	26	288	6
TAP	27	0	2
TAP	27	96	1
TAP	27	96	3
TAP	27	192	0
TAP	27	192	7
TAP	27	288	0
TAP	27	288	7
TAP	28	0	5
TAP	28	96	4
TAP	28	96	6
TAP	28	192	2
TAP	28	288	1
TAP	28	288	3
TAP	29	0	5
TAP	29	96	4
TAP	29	96	6
TAP	29	192	0
TAP	29	192	7
TAP	29	288	0
TAP	29	288	7
TAP	30	0	2
TAP	30	96	1
TAP	30	96	3
TAP	30	192	5
TAP	30	288	4
TAP	30	288	6
TAP	31	0	2
TAP	31	96	1
TAP	31	96	3
TAP	31	192	0
TAP	31	192	7
TAP	31	288	1
TAP	31	288	6
TAP	32	0	4
TAP	32	48	4
TAP	32	96	4
TAP	32	192	2
TAP	32	192	3
TAP	32	288	4
TAP	32	288	5
HLD	33	0	3	96
HLD	33	0	4	96
TAP	33	192	7
TAP	33	288	0
TAP	34	0	6
TAP	34	96	5
TAP	34	96	7
TAP	34	192	1
TAP	34	288	0
TAP	34	288	2
TAP	35	0	6
TAP	35	96	5
TAP	35	96	7
TAP	35	192	3
TAP	35	192	4
TAP	35	288	3
TAP	35	288	4
TAP	36	0	1
TAP	36	96	0
TAP	36	96	2
TAP	36	192	6
TAP	36	288	5
TAP	36	288	7
TAP	37	0	1
TAP	37	96	0
TAP	37	96	2
TAP	37	192	3
TAP	37	192	4
TAP	37	288	3
TAP	37	288	4
TAP	38	0	6
TAP	38	96	5
TAP	38	96	7
TAP	38	192	1
TAP	38	288	0
TAP	38	288	2
TAP	39	0	6
TAP	39	96	5
TAP	39	96	7
TAP	39	192	3
TAP	39	192	4
TAP	39	288	2
TAP	39	288	5
TAP	40	0	0
TAP	40	48	0
TAP	40	96	0
TAP	40	192	6
TAP	40	192	7
TAP	40	288	0
TAP	40	288	1
STR	41	0	1
SLR	41	0	1	96	192	0
STR	41	0	6
SLL	41	0	6	96	192	7
HLD	42	0	6	96
TAP	42	96	7
TAP	42	192	0
TAP	42	192	5
TAP	42	288	0
TAP	42	288	5
HLD	43	0	2	96
TAP	43	96	3
TAP	43	192	1
TAP	43	192	4
HLD	44	0	1	96
TAP	44	96	0
TAP	44	192	2
TAP	44	192	7
TAP	44	288	2
TAP	44	288	7
HLD	45	0	5	96
TAP	45	96	4
TAP	45	192	3
TAP	45	192	6
HLD	46	0	5	96
TAP	46	96	4
TAP	46	192	3
TAP	46	192	6
TAP	46	288	3
TAP	46	288	6
HLD	47	0	1	96
TAP	47	96	0
TAP	47	192	2
TAP	47	192	7
HLD	48	0	2	96
TAP	48	96	3
HLD	48	192	5	96
TAP	48	288	4
STR	49	0	3
SV_	49	0	3	96	144	0
STR	49	0	4
SV_	49	0	4	96	144	7
TAP	50	0	0
TAP	50	0	7
TAP	50	96	0
TAP	50	96	1
TAP	50	192	0
TAP	50	192	7
TAP	50	288	6
TAP	50	288	7
HLD	51	0	0	96
HLD	51	0	7	96
TAP	51	192	1
TAP	51	192	6
TAP	51	288	2
TAP	51	288	5
TAP	52	0	3
TAP	52	0	4
TAP	52	96	4
TAP	52	96	5
TAP	52	192	3
TAP	52	192	4
TAP	52	288	2
TAP	52	288	3
HLD	53	0	3	96
HLD	53	0	4	96
TAP	53	192	2
TAP	53	192	5
TAP	53	288	1
TAP	53	288	6
TAP	54	0	0
TAP	54	0	7
TAP	54	96	6
TAP	54	96	7
TAP	54	192	0
TAP	54	192	7
TAP	54	288	0
TAP	54	288	1
HLD	55	0	0	96
HLD	55	0	7	96
TAP	55	192	1
TAP	55	192	6
TAP	55	288	2
TAP	55	288	5
TAP	56	0	3
TAP	56	0	4
TAP	56	96	2
TAP	56	96	5
STR	56	192	3
SXR	56	192	3	96	288	0
STR	56	192	4
SXL	56	192	4	96	288	7
BRK	58	0	1
BRK	58	0	6

T_REC_TAP	235
T_REC_BRK	5
T_REC_XTP	0
T_REC_HLD	28
T_REC_XHO	0
T_REC_STR	19
T_REC_BST	0
T_REC_XST	0
T_REC_TTP	0
T_REC_THO	0
T_REC_SLD	19
T_REC_ALL	306
T_NUM_TAP	254
T_NUM_BRK	5
T_NUM_HLD	28
T_NUM_SLD	19
T_NUM_ALL	306
T_JUDGE_TAP	259
T_JUDGE_HLD	56
T_JUDGE_SLD	19
T_JUDGE_ALL	334
TTM_EACHPAIRS	104
TTM_SCR_TAP	127000
TTM_SCR_BRK	13000
TTM_SCR_HLD	28000
TTM_SCR_SLD	28500
TTM_SCR_ALL	196500
TTM_SCR_S	190150
TTM_SCR_SS	196000
TTM_RAT_ACV	10025

