VERSION	0.00.00	1.03.00
FES_MODE	0
BPM_DEF	128.000	128.000	128.000	128.000
MET_DEF	4	4
RESOLUTION	384
CLK_DEF	384
COMPATIBLE_CODE	MA2

BPM	0	0	128.000
MET	0	0	4	4

TAP	2	0	0
TAP	2	192	0
TAP	3	0	1
TAP	3	192	1
TAP	4	0	2
TAP	4	192	2
TAP	5	0	3
TAP	5	192	3
TAP	5	192	4
TAP	6	0	4
TAP	6	192	4
TAP	7	0	5
TAP	7	192	5
TAP	8	0	6
TAP	8	192	6
TAP	9	0	7
TAP	9	192	0
TAP	9	192	7
STR	10	0	0
SI_	10	0	0	96	288	3
STR	12	0	7
SI_	12	0	7	96	288	4
STR	14	0	0
SI_	14	0	0	96	288	4
STR	16	0	7
SI_	16	0	7	96	288	3
TAP	18	0	1
TAP	18	192	1
HLD	19	0	2	192
TAP	20	0	3
TAP	20	192	3
HLD	21	0	4	192
TAP	22	0	5
TAP	22	192	5
HLD	23	0	6	192
TAP	24	0	7
TAP	24	192	7
HLD	25	0	0	192
TAP	26	0	7
TAP	26	192	7
TAP	27	0	6
TAP	27	96	6
TAP	27	192	6
TAP	28	0	5
TAP	28	192	5
TAP	29	0	4
TAP	29	96	4
TAP	29	192	4
TAP	30	0	3
TAP	30	192	3
TAP	31	0	2
TAP	31	96	2
TAP	31	192	2
TAP	32	0	1
TAP	32	192	1
TAP	33	0	0
TAP	33	96	0
TAP	33	192	0
TAP	34	0	1
TAP	34	192	1
TAP	35	0	2
TAP	35	96	2
TAP	35	192	2
TAP	35	192	3
TAP	36	0	3
TAP	36	192	3
TAP	37	0	4
TAP	37	96	4
TAP	37	192	3
TAP	37	192	4
TAP	38	0	5
TAP	38	192	5
TAP	39	0	6
TAP	39	96	6
TAP	39	192	6
TAP	39	192	7
TAP	40	0	7
TAP	40	192	7
TAP	41	0	0
TAP	41	96	0
BRK	41	192	0
BRK	41	192	7
TAP	42	0	6
TAP	42	96	6
TAP	42	192	6
TAP	43	0	5
TAP	43	96	5
TAP	43	192	5
TAP	44	0	4
TAP	44	96	4
TAP	44	192	4
TAP	45	0	2
TAP	45	0	3
TAP	45	96	2
TAP	45	96	3
TAP	45	192	2
TAP	45	192	3
TAP	46	0	2
TAP	46	96	2
TAP	46	192	2
TAP	47	0	1
TAP	47	96	1
TAP	47	192	1
TAP	48	0	0
TAP	48	96	0
TAP	48	192	0
TAP	49	0	6
TAP	49	0	7
TAP	49	96	6
TAP	49	96	7
TAP	49	192	6
TAP	49	192	7
STR	50	0	6
SI_	50	0	6	96	288	2
TAP	52	0	1
TAP	52	96	1
TAP	52	192	1
TAP	53	0	2
TAP	53	96	2
TAP	53	192	2
TAP	54	0	3
TAP	54	96	3
TAP	54	192	3
TAP	55	0	4
TAP	55	96	4
TAP	55	192	4
TAP	56	0	3
TAP	56	96	3
TAP	56	192	3
TAP	57	0	4
TAP	57	96	4
TAP	57	192	4
STR	58	0	3
SI_	58	0	3	96	288	0

T_REC_TAP	116
T_REC_BRK	2
T_REC_XTP	0
T_REC_HLD	4
T_REC_XHO	0
T_REC_STR	6
T_REC_BST	0
T_REC_XST	0
T_REC_TTP	0
T_REC_THO	0
T_REC_SLD	6
T_REC_ALL	134
T_NUM_TAP	122
T_NUM_BRK	2
T_NUM_HLD	4
T_NUM_SLD	6
T_NUM_ALL	134
T_JUDGE_TAP	124
T_JUDGE_HLD	16
T_JUDGE_SLD	6
T_JUDGE_ALL	146
TTM_EACHPAIRS	12
TTM_SCR_TAP	61000
TTM_SCR_BRK	5200
TTM_SCR_HLD	4000
TTM_SCR_SLD	9000
TTM_SCR_ALL	79200
TTM_SCR_S	76650
TTM_SCR_SS	79000
TTM_RAT_ACV	10025

