VERSION	0.00.00	1.03.00
FES_MODE	0
BPM_DEF	184.000	184.000	184.000	184.000
MET_DEF	4	4
RESOLUTION	384
CLK_DEF	384
COMPATIBLE_CODE	MA2

BPM	0	0	184.000
MET	0	0	4	4

TAP	1	0	3
TAP	1	0	4
TAP	1	48	3
TAP	1	48	4
TAP	1	96	3
TAP	1	96	4
TAP	1	144	3
TAP	1	144	4
TAP	1	192	3
TAP	1	192	4
BRK	1	288	1
BRK	1	288	6
TAP	2	0	2
STR	2	0	3
SI_	2	0	3	96	48	0
STR	2	192	4
SI_	2	192	4	96	48	7
TAP	2	192	5
TAP	3	0	2
STR	3	0	3
SI_	3	0	3	96	48	0
TAP	3	192	4
TAP	3	192	5
TAP	3	288	3
TAP	3	288	7
TAP	4	0	1
TAP	4	0	5
TAP	4	96	3
STR	4	144	3
SCL	4	144	3	96	96	7
STR	4	240	7
SCL	4	240	7	96	96	3
TAP	4	336	3
TAP	5	144	0
TAP	5	192	7
TAP	5	240	7
TAP	5	288	0
TAP	5	336	0
STR	6	0	1
SI_	6	0	1	96	48	5
TAP	6	0	5
TAP	6	96	7
TAP	6	192	2
STR	6	192	6
SI_	6	192	6	96	48	2
TAP	6	288	0
STR	7	0	2
SCR	7	0	2	96	48	5
TAP	7	0	6
TAP	7	96	0
TAP	7	192	1
STR	7	192	5
SCL	7	192	5	96	48	2
TAP	7	288	7
STR	8	0	0
SCR	8	0	0	96	144	6
TAP	8	0	7
TAP	8	96	7
TAP	8	192	7
TAP	8	288	0
TAP	8	288	7
TAP	8	336	0
TAP	8	336	7
BRK	9	48	1
BRK	9	48	6
BRK	9	144	1
BRK	9	144	6
BRK	9	240	1
BRK	9	240	6
TAP	9	336	0
TAP	9	336	7
TAP	10	0	0
TAP	10	0	7
TAP	10	96	3
TAP	10	96	4
TAP	10	192	4
TAP	10	192	6
TAP	10	240	7
TAP	10	288	0
TAP	10	336	1
TAP	11	0	2
TAP	11	0	4
TAP	11	96	3
TAP	11	96	5
TAP	11	192	1
TAP	11	192	3
TAP	11	240	0
TAP	11	288	7
TAP	11	336	6
TAP	12	0	3
TAP	12	0	5
TAP	12	96	0
TAP	12	96	7
TAP	12	192	4
TAP	12	192	6
TAP	12	240	7
TAP	12	288	0
TAP	12	336	1
TAP	13	0	2
TAP	13	0	4
TAP	13	96	3
TAP	13	96	5
TAP	13	192	1
TAP	13	192	3
TAP	13	240	0
TAP	13	288	7
TAP	14	0	2
TAP	14	0	4
TAP	14	96	3
TAP	14	96	5
TAP	14	192	7
STR	14	288	7
SUL	14	288	7	96	96	0
TAP	15	192	3
TAP	15	192	5
TAP	15	288	2
TAP	15	288	4
STR	16	0	3
SXL	16	0	3	96	144	3
SXR	16	0	3	96	144	3
TAP	16	336	3
TAP	16	336	4
TAP	17	48	3
TAP	17	48	5
TAP	17	144	2
TAP	17	144	4
TAP	17	240	3
TAP	17	240	4
TAP	17	288	3
TAP	17	288	4
TAP	18	0	1
TAP	18	0	3
TAP	18	96	2
TAP	18	96	4
TAP	18	192	0
TAP	18	288	0
STR	19	96	0
SI_	19	96	0	96	48	3
STR	19	96	7
SI_	19	96	7	96	48	4
BRK	19	288	1
BRK	19	288	6
BRK	20	0	1
BRK	20	0	6
STR	20	96	3
SI_	20	96	3	96	48	0
STR	20	96	4
SI_	20	96	4	96	48	7
TAP	20	336	3
TAP	20	336	4
TAP	21	48	2
TAP	21	48	4
TAP	21	144	3
TAP	21	144	5
TAP	21	240	3
TAP	21	240	4
TAP	21	288	3
TAP	21	288	4
HLD	22	0	5	96
TAP	22	96	4
HLD	22	192	3	96
STR	22	288	4
SV_	22	288	4	96	96	1
SV_	22	288	4	96	96	7
TAP	23	192	1
TAP	23	192	5
STR	23	288	0
SCR	23	288	0	96	48	3
STR	23	288	4
SCR	23	288	4	96	48	7
STR	24	96	2
SCL	24	96	2	96	48	7
STR	24	96	6
SCL	24	96	6	96	48	3
TAP	24	336	3
TAP	24	336	4
TAP	25	48	3
TAP	25	48	5
TAP	25	144	2
TAP	25	144	4
TAP	25	240	3
TAP	25	240	4
TAP	25	288	3
TAP	25	288	4
STR	26	0	5
SI_	26	0	5	96	48	2
STR	26	0	6
SI_	26	0	6	96	48	1
TAP	26	192	0
TAP	26	288	0
STR	27	96	5
SI_	27	96	5	96	48	1
STR	27	96	6
SI_	27	96	6	96	48	2
TAP	27	288	1
TAP	28	0	1
STR	28	96	3
SI_	28	96	3	96	48	1
STR	28	96	4
SI_	28	96	4	96	48	6
TAP	28	336	3
TAP	28	336	4
TAP	29	48	2
TAP	29	48	4
TAP	29	144	3
TAP	29	144	5
TAP	29	240	3
TAP	29	240	4
TAP	29	288	3
TAP	29	288	4
STR	30	0	4
SCL	30	0	4	96	48	1
TAP	30	0	6
TAP	30	144	6
TAP	30	192	6
TAP	30	192	7
TAP	30	288	0
TAP	30	288	5
TAP	31	0	1
STR	31	0	3
SCR	31	0	3	96	48	6
TAP	31	144	1
TAP	31	192	0
TAP	31	192	1
TAP	31	288	2
TAP	31	288	7
TAP	32	0	3
STR	32	0	5
SCR	32	0	5	96	48	0
TAP	32	144	2
TAP	32	192	2
TAP	32	192	3
TAP	32	288	1
TAP	32	288	4
STR	33	0	2
SCL	33	0	2	96	48	7
TAP	33	0	4
TAP	33	144	5
TAP	33	192	4
TAP	33	192	5
TAP	33	288	3
TAP	33	288	6
TAP	34	0	1
STR	34	0	3
SCR	34	0	3	96	48	6
TAP	34	144	1
TAP	34	192	0
TAP	34	192	1
TAP	34	288	2
TAP	34	288	7
STR	35	0	4
SCL	35	0	4	96	48	1
TAP	35	0	6
TAP	35	144	6
TAP	35	192	6
TAP	35	192	7
TAP	35	288	0
TAP	35	288	5
STR	36	0	2
SCL	36	0	2	96	48	7
TAP	36	0	4
TAP	36	144	5
TAP	36	192	4
TAP	36	192	5
TAP	36	288	3
TAP	36	288	6
TAP	37	0	3
STR	37	0	5
SCR	37	0	5	96	48	0
TAP	37	144	2
TAP	37	192	2
TAP	37	192	3
TAP	37	288	1
TAP	37	288	6
STR	38	0	5
SCL	38	0	5	96	96	2
STR	38	96	2
SCL	38	96	2	96	96	7
STR	38	192	7
SCL	38	192	7	96	96	4
STR	38	288	4
SCL	38	288	4	96	96	1
STR	39	0	1
SCL	39	0	1	96	96	6
STR	39	96	6
SCL	39	96	6	96	96	3
STR	39	192	3
SCL	39	192	3	96	96	0
STR	39	288	0
SCL	39	288	0	96	96	5
STR	40	0	5
SCL	40	0	5	96	96	2
STR	40	96	2
SCL	40	96	2	96	96	7
STR	40	192	7
SCL	40	192	7	96	96	4
STR	40	288	4
SCL	40	288	4	96	96	1
STR	41	0	1
SCL	41	0	1	96	96	6
TAP	41	96	6
TAP	41	192	3
TAP	41	288	0
TAP	41	288	7
STR	42	0	4
SI_	42	0	4	96	48	7
STR	42	0	5
SI_	42	0	5	96	48	3
STR	42	192	2
SI_	42	192	2	96	48	4
STR	42	192	3
SI_	42	192	3	96	48	0
STR	43	0	3
SI_	43	0	3	96	48	6
STR	43	0	4
SI_	43	0	4	96	48	1
STR	43	192	2
SI_	43	192	2	96	48	7
STR	43	192	5
SI_	43	192	5	96	48	0
STR	44	0	1
SSL	44	0	1	96	240	5
STR	44	0	6
SSR	44	0	6	96	240	2
TAP	45	0	0
TAP	45	0	7
TAP	45	48	0
TAP	45	48	7
TAP	45	96	0
TAP	45	96	7
TAP	45	144	0
TAP	45	144	7
TAP	45	192	0
TAP	45	192	7
BRK	45	288	1
BRK	45	288	6
TAP	46	0	2
STR	46	0	3
SI_	46	0	3	96	48	5
TAP	46	96	1
TAP	46	192	2
STR	46	192	3
SI_	46	192	3	96	48	6
TAP	46	288	1
TAP	47	0	2
STR	47	0	3
SI_	47	0	3	96	48	7
TAP	47	96	0
TAP	47	192	2
TAP	47	192	3
TAP	47	288	0
TAP	47	288	4
TAP	48	0	2
TAP	48	0	6
TAP	48	96	4
STR	48	144	4
SCR	48	144	4	96	96	0
STR	48	240	0
SUR	48	240	0	96	144	2
TAP	48	336	2
TAP	49	144	0
TAP	49	192	7
TAP	49	240	7
TAP	49	288	1
TAP	49	336	1
TAP	50	0	0
STR	50	0	1
SI_	50	0	1	96	48	5
TAP	50	96	7
STR	50	192	6
SI_	50	192	6	96	48	2
TAP	50	192	7
TAP	50	288	0
TAP	51	0	2
STR	51	0	3
SI_	51	0	3	96	48	7
TAP	51	96	0
STR	51	192	4
SI_	51	192	4	96	48	0
TAP	51	192	5
TAP	51	288	7
HLD	52	0	3	96
HLD	52	0	4	96
TAP	52	144	3
TAP	52	144	4
TAP	52	192	3
TAP	52	192	4
TAP	52	288	2
TAP	52	288	5
BRK	52	336	2
BRK	52	336	5
BRK	53	0	2
BRK	53	0	5
BRK	53	48	2
BRK	53	48	5
BRK	53	96	2
BRK	53	96	5
TAP	53	144	2
TAP	53	144	5
TAP	53	192	2
TAP	53	192	5
TAP	53	240	3
TAP	53	288	3
TAP	53	336	3
STR	54	0	4
SI_	54	0	4	96	48	2
TAP	54	0	5
TAP	54	96	6
STR	54	192	4
SI_	54	192	4	96	48	1
TAP	54	192	5
TAP	54	288	6
STR	55	0	4
SI_	55	0	4	96	48	0
TAP	55	0	5
TAP	55	96	7
TAP	55	192	4
TAP	55	192	5
TAP	55	288	3
TAP	55	288	7
TAP	56	0	1
TAP	56	0	5
TAP	56	96	3
STR	56	144	3
SCL	56	144	3	96	96	7
STR	56	240	7
SUL	56	240	7	96	144	5
TAP	56	336	5
TAP	57	144	7
TAP	57	192	0
TAP	57	240	0
TAP	57	288	6
TAP	57	336	6
STR	58	0	6
SI_	58	0	6	96	48	2
STR	58	0	7
SI_	58	0	7	96	48	1
STR	58	192	0
SI_	58	192	0	96	48	6
STR	58	192	1
SI_	58	192	1	96	48	5
STR	59	0	4
SI_	59	0	4	96	48	0
STR	59	0	5
SI_	59	0	5	96	48	7
STR	59	192	2
SI_	59	192	2	96	48	0
STR	59	192	3
SI_	59	192	3	96	48	7
STR	60	0	0
SCR	60	0	0	96	144	6
TAP	60	0	7
TAP	60	96	7
TAP	60	192	7
TAP	60	288	0
TAP	60	288	7
TAP	60	336	0
TAP	60	336	7
BRK	61	48	1
BRK	61	48	6
BRK	61	96	1
BRK	61	96	6
BRK	61	144	1
BRK	61	144	6
BRK	61	192	1
BRK	61	192	6
BRK	61	240	1
BRK	61	240	6
BRK	61	288	1
BRK	61	288	6
TAP	61	336	1
TAP	61	336	6
TAP	62	0	1
TAP	62	0	6
TAP	62	96	3
TAP	62	96	4
TAP	62	192	1
TAP	62	192	3
TAP	62	240	0
TAP	62	288	7
TAP	62	336	6
TAP	63	0	3
TAP	63	0	5
TAP	63	96	2
TAP	63	96	4
TAP	63	192	4
TAP	63	192	6
TAP	63	240	7
TAP	63	288	0
TAP	63	336	1
TAP	64	0	2
TAP	64	0	4
TAP	64	96	0
TAP	64	96	7
TAP	64	192	1
TAP	64	192	3
TAP	64	240	0
TAP	64	288	7
TAP	64	336	6
TAP	65	0	3
TAP	65	0	5
TAP	65	96	2
TAP	65	96	4
TAP	65	192	4
TAP	65	192	6
TAP	65	240	7
TAP	65	288	0
STR	66	0	1
SCR	66	0	1	96	48	4
HLD	66	0	5	2304
TAP	66	96	1
STR	66	192	1
SCR	66	192	1	96	48	4
TAP	66	288	1
STR	67	0	1
SCR	67	0	1	96	48	4
TAP	67	96	1
STR	67	192	1
SCR	67	192	1	96	48	4
TAP	67	288	1
STR	68	0	1
SXR	68	0	1	96	192	6
STR	69	0	6
SUR	69	0	6	96	192	1
STR	70	0	1
SCR	70	0	1	96	48	4
TAP	70	96	1
STR	70	192	1
SCR	70	192	1	96	48	4
TAP	70	288	1
STR	71	0	1
SCR	71	0	1	96	48	4
TAP	71	96	1
STR	71	192	1
SCR	71	192	1	96	48	4
TAP	71	288	1
TAP	72	0	1
TAP	72	96	3
TAP	72	96	4
TAP	72	192	2
TAP	72	192	5
STR	72	288	0
SXL	72	288	0	96	192	3
STR	72	288	7
SXR	72	288	7	96	192	4
BRK	73	288	1
BRK	73	288	6
HLD	74	0	3	144
STR	74	0	5
SCR	74	0	5	96	48	7
HLD	74	192	4	144
STR	74	192	5
SCR	74	192	5	96	48	7
HLD	75	0	3	144
STR	75	0	5
SCR	75	0	5	96	48	7
HLD	75	192	4	144
STR	75	192	5
SCR	75	192	5	96	48	7
STR	76	0	2
SCL	76	0	2	96	48	0
HLD	76	0	4	144
STR	76	192	2
SCL	76	192	2	96	48	0
HLD	76	192	3	144
STR	77	0	2
SCL	77	0	2	96	48	0
HLD	77	0	4	144
STR	77	192	2
SCL	77	192	2	96	48	0
HLD	77	192	3	144
TAP	78	0	3
STR	78	0	5
SCR	78	0	5	96	48	7
TAP	78	96	3
TAP	78	192	4
STR	78	192	5
SCR	78	192	5	96	48	7
TAP	78	288	4
STR	79	0	2
SCL	79	0	2	96	48	0
TAP	79	0	3
TAP	79	96	3
STR	79	192	2
SCL	79	192	2	96	48	0
TAP	79	192	4
TAP	79	288	4
STR	80	0	6
SCL	80	0	6	96	48	3
STR	80	0	7
SCR	80	0	7	96	48	2
STR	80	192	0
SCL	80	192	0	96	48	5
STR	80	192	1
SCR	80	192	1	96	48	4
STR	81	0	3
SI_	81	0	3	96	48	7
STR	81	0	4
SI_	81	0	4	96	48	0
BRK	81	192	1
BRK	81	192	6
TAP	82	0	3
STR	82	0	4
SI_	82	0	4	96	48	0
SI_	82	0	4	96	48	2
STR	82	192	4
SI_	82	192	4	96	48	1
SI_	82	192	4	96	48	7
TAP	82	192	5
TAP	83	0	3
STR	83	0	4
SI_	83	0	4	96	48	0
SI_	83	0	4	96	48	6
TAP	83	192	4
TAP	83	192	5
TAP	83	288	3
TAP	83	288	7
TAP	84	0	1
TAP	84	0	5
TAP	84	96	3
STR	84	144	3
SCL	84	144	3	96	96	7
STR	84	240	7
SUL	84	240	7	96	144	5
TAP	84	336	5
TAP	85	144	7
TAP	85	192	0
TAP	85	240	0
TAP	85	288	6
TAP	85	336	6
STR	86	0	4
SI_	86	0	4	96	48	0
TAP	86	0	5
TAP	86	96	7
TAP	86	192	2
STR	86	192	3
SI_	86	192	3	96	48	7
TAP	86	288	0
TAP	87	0	4
STR	87	0	5
SI_	87	0	5	96	48	0
TAP	87	96	1
STR	87	192	2
SI_	87	192	2	96	48	7
TAP	87	192	3
TAP	87	288	6
HLD	88	0	3	96
HLD	88	0	4	96
TAP	88	144	3
TAP	88	144	4
TAP	88	192	3
TAP	88	192	4
TAP	88	288	1
TAP	88	288	6
BRK	88	336	1
BRK	88	336	6
BRK	89	0	1
BRK	89	0	6
BRK	89	48	1
BRK	89	48	6
BRK	89	96	1
BRK	89	96	6
TAP	89	144	1
TAP	89	144	6
TAP	89	192	1
TAP	89	192	6
TAP	89	240	2
TAP	89	288	2
TAP	89	336	2
STR	90	0	3
SI_	90	0	3	96	48	5
SI_	90	0	3	96	48	7
TAP	90	0	4
TAP	90	192	2
STR	90	192	3
SI_	90	192	3	96	48	0
SI_	90	192	3	96	48	6
STR	91	0	3
SI_	91	0	3	96	48	1
SI_	91	0	3	96	48	7
TAP	91	0	4
TAP	91	192	2
TAP	91	192	3
TAP	91	288	0
TAP	91	288	4
TAP	92	0	2
TAP	92	0	6
TAP	92	96	0
TAP	92	144	7
STR	92	192	6
SXL	92	192	6	96	192	1
TAP	93	144	0
TAP	93	192	7
TAP	93	240	7
TAP	93	288	1
TAP	93	336	1
STR	94	0	2
SI_	94	0	2	96	48	4
STR	94	0	3
SI_	94	0	3	96	48	7
STR	94	192	4
SI_	94	192	4	96	48	0
STR	94	192	5
SI_	94	192	5	96	48	3
STR	95	0	1
SI_	95	0	1	96	48	3
STR	95	0	2
SI_	95	0	2	96	48	7
STR	95	192	5
SI_	95	192	5	96	48	0
STR	95	192	6
SI_	95	192	6	96	48	4
TAP	96	0	0
STR	96	0	7
SCL	96	0	7	96	144	1
TAP	96	96	0
TAP	96	192	0
TAP	96	288	0
TAP	96	288	7
TAP	96	336	0
TAP	96	336	7
BRK	97	48	1
BRK	97	48	6
BRK	97	96	1
BRK	97	96	6
BRK	97	144	1
BRK	97	144	6
BRK	97	192	1
BRK	97	192	6
BRK	97	240	1
BRK	97	240	6
BRK	97	288	1
BRK	97	288	6
TAP	97	336	1
TAP	97	336	6
STR	98	0	0
SI_	98	0	0	96	48	4
STR	98	0	6
SI_	98	0	6	96	48	1
TAP	98	192	4
TAP	98	192	5
TAP	98	240	4
TAP	98	288	6
TAP	98	336	6
TAP	99	0	2
BRK	99	48	2
BRK	99	48	7
BRK	99	96	2
BRK	99	96	7
BRK	99	144	2
BRK	99	144	7
BRK	99	192	2
BRK	99	192	7
BRK	99	240	2
BRK	99	240	7
BRK	99	288	2
BRK	99	288	7
TAP	99	336	2
TAP	99	336	7
STR	100	0	0
SV_	100	0	0	96	48	3
STR	100	0	5
SV_	100	0	5	96	48	3
TAP	100	192	2
TAP	100	192	3
TAP	100	240	3
TAP	100	288	1
TAP	100	336	1
TAP	101	0	5
BRK	101	48	0
BRK	101	48	5
BRK	101	96	0
BRK	101	96	5
BRK	101	144	0
BRK	101	144	5
BRK	101	192	0
BRK	101	192	5
BRK	101	240	0
BRK	101	240	5
BRK	101	288	0
BRK	101	288	5
TAP	101	336	0
TAP	101	336	5
HLD	102	0	1	192
STR	102	0	7
SUL	102	0	7	96	48	2
STR	102	192	6
SI_	102	192	6	96	48	1
TAP	103	0	2
TAP	103	0	5
BRK	103	48	2
BRK	103	48	5
BRK	103	96	2
BRK	103	96	5
BRK	103	144	2
BRK	103	144	5
BRK	103	192	2
BRK	103	192	5
BRK	103	240	2
BRK	103	240	5
BRK	103	288	2
BRK	103	288	5
TAP	103	336	2
TAP	103	336	5
STR	104	0	4
SCL	104	0	4	96	48	1
HLD	104	0	6	96
TAP	104	192	1
TAP	104	192	3
TAP	104	240	0
TAP	104	288	7
TAP	104	336	6
TAP	105	0	3
TAP	105	0	5
TAP	105	96	2
TAP	105	96	4
TAP	105	192	4
TAP	105	192	6
TAP	105	240	7
TAP	105	288	0
TAP	105	336	1
HLD	106	0	2	96
HLD	106	96	3	120
STR	106	216	4
SCR	106	216	4	96	456	3

T_REC_TAP	422
T_REC_BRK	94
T_REC_XTP	0
T_REC_HLD	19
T_REC_XHO	0
T_REC_STR	141
T_REC_BST	0
T_REC_XST	0
T_REC_TTP	0
T_REC_THO	0
T_REC_SLD	149
T_REC_ALL	825
T_NUM_TAP	563
T_NUM_BRK	94
T_NUM_HLD	19
T_NUM_SLD	149
T_NUM_ALL	825
T_JUDGE_TAP	657
T_JUDGE_HLD	95
T_JUDGE_SLD	149
T_JUDGE_ALL	901
TTM_EACHPAIRS	252
TTM_SCR_TAP	281500
TTM_SCR_BRK	244400
TTM_SCR_HLD	19000
TTM_SCR_SLD	223500
TTM_SCR_ALL	768400
TTM_SCR_S	736250
TTM_SCR_SS	759000
TTM_RAT_ACV	10123

