VERSION	0.00.00	1.03.00
FES_MODE	0
BPM_DEF	184.000	184.000	184.000	184.000
MET_DEF	4	4
RESOLUTION	384
CLK_DEF	384
COMPATIBLE_CODE	MA2

BPM	0	0	184.000
MET	0	0	4	4

HLD	2	0	2	288
TAP	2	96	3
TAP	2	192	3
TAP	2	288	3
HLD	3	0	5	288
TAP	3	96	4
TAP	3	192	4
TAP	3	288	4
HLD	4	0	3	288
TAP	4	96	4
TAP	4	192	4
TAP	4	288	4
TAP	5	0	3
TAP	5	0	4
TAP	5	96	2
TAP	5	96	5
TAP	5	192	1
TAP	5	192	6
HLD	6	0	2	96
TAP	6	96	3
HLD	6	192	5	96
TAP	6	288	4
HLD	7	0	1	96
TAP	7	96	3
HLD	7	192	6	96
TAP	7	288	4
HLD	8	0	2	384
HLD	8	0	5	384
BRK	9	48	2
BRK	9	48	5
BRK	9	144	2
BRK	9	144	5
BRK	9	240	2
BRK	9	240	5
TAP	9	336	3
TAP	9	336	4
STR	10	0	3
SI_	10	0	3	96	48	7
TAP	10	0	4
TAP	10	192	6
TAP	10	288	5
STR	11	0	4
SI_	11	0	4	96	48	0
TAP	11	192	1
TAP	11	288	2
STR	12	0	3
SI_	12	0	3	96	48	7
TAP	12	192	6
TAP	12	288	5
STR	13	0	4
SI_	13	0	4	96	48	0
TAP	13	192	1
TAP	13	288	2
HLD	14	0	3	192
TAP	14	96	4
TAP	14	192	2
HLD	15	0	4	192
TAP	15	96	3
TAP	15	192	5
HLD	16	0	2	192
TAP	16	96	3
TAP	16	192	1
HLD	17	0	5	192
TAP	17	96	4
TAP	17	192	6
HLD	18	0	1	192
TAP	18	96	2
TAP	18	192	0
HLD	19	0	6	192
TAP	19	96	5
TAP	19	192	7
TAP	20	0	1
TAP	20	96	0
TAP	20	192	2
TAP	20	192	7
TAP	21	0	6
TAP	21	96	7
TAP	21	192	0
TAP	21	192	5
HLD	22	0	3	192
TAP	22	0	4
TAP	22	96	2
TAP	22	192	1
TAP	23	0	3
HLD	23	0	4	192
TAP	23	96	5
TAP	23	192	6
HLD	24	0	2	192
TAP	24	0	3
TAP	24	96	1
TAP	24	192	0
TAP	25	0	4
HLD	25	0	5	192
TAP	25	96	6
TAP	25	192	7
HLD	26	0	1	192
TAP	26	0	3
TAP	26	96	0
TAP	26	192	7
TAP	27	0	4
HLD	27	0	6	192
TAP	27	96	7
TAP	27	192	0
TAP	28	0	0
TAP	28	96	1
TAP	28	192	2
TAP	28	192	7
TAP	29	0	7
TAP	29	96	6
TAP	29	192	0
TAP	29	192	5
HLD	30	0	2	144
HLD	30	0	3	144
TAP	30	192	2
TAP	30	192	3
TAP	30	288	1
TAP	30	288	4
HLD	31	0	4	144
HLD	31	0	5	144
TAP	31	192	4
TAP	31	192	5
TAP	31	288	3
TAP	31	288	6
HLD	32	0	2	144
HLD	32	0	3	144
TAP	32	192	2
TAP	32	192	3
TAP	32	288	1
TAP	32	288	4
HLD	33	0	4	144
HLD	33	0	5	144
TAP	33	192	4
TAP	33	192	5
TAP	33	288	3
TAP	33	288	6
HLD	34	0	0	144
HLD	34	0	1	144
TAP	34	192	0
TAP	34	192	1
TAP	34	288	2
TAP	34	288	7
HLD	35	0	6	144
HLD	35	0	7	144
TAP	35	192	6
TAP	35	192	7
TAP	35	288	0
TAP	35	288	5
HLD	36	0	0	144
HLD	36	0	1	144
TAP	36	192	0
TAP	36	192	1
TAP	36	288	2
TAP	36	288	7
HLD	37	0	6	144
HLD	37	0	7	144
TAP	37	192	6
TAP	37	192	7
TAP	37	288	0
TAP	37	288	5
TAP	38	0	2
TAP	38	96	3
TAP	38	96	4
TAP	38	192	5
TAP	38	288	3
TAP	38	288	4
TAP	39	0	2
TAP	39	96	2
TAP	39	96	3
TAP	39	192	5
TAP	39	288	4
TAP	39	288	5
TAP	40	0	2
TAP	40	96	1
TAP	40	96	2
TAP	40	192	5
TAP	40	288	5
TAP	40	288	6
TAP	41	0	2
TAP	41	96	0
TAP	41	96	1
TAP	41	192	5
TAP	41	288	6
TAP	41	288	7
HLD	42	0	0	96
HLD	42	96	1	96
HLD	42	192	2	96
HLD	42	288	3	96
HLD	43	0	4	96
HLD	43	96	5	96
HLD	43	192	6	96
STR	43	288	7
SCR	43	288	7	96	192	6
TAP	45	0	0
TAP	45	48	0
TAP	45	96	7
TAP	45	144	7
TAP	45	192	0
BRK	45	288	1
BRK	45	288	6
TAP	46	0	0
STR	46	0	1
SI_	46	0	1	96	48	4
STR	46	192	6
SI_	46	192	6	96	48	3
TAP	46	192	7
TAP	47	0	0
STR	47	0	1
SI_	47	0	1	96	48	4
STR	47	192	6
SI_	47	192	6	96	48	3
TAP	47	192	7
TAP	48	0	0
TAP	48	0	1
TAP	48	96	2
TAP	48	96	7
HLD	48	144	2	96
TAP	48	144	7
STR	48	240	3
SF_	48	240	3	96	96	7
TAP	49	192	0
TAP	49	192	7
TAP	49	288	2
TAP	49	288	5
TAP	50	0	3
HLD	50	0	6	96
TAP	50	96	5
HLD	50	192	1	96
TAP	50	192	4
TAP	50	288	2
TAP	51	0	3
HLD	51	0	6	96
TAP	51	96	5
HLD	51	192	1	96
TAP	51	192	4
TAP	51	288	2
TAP	52	0	3
TAP	52	0	4
TAP	52	96	3
TAP	52	96	4
HLD	52	192	2	96
HLD	52	192	5	96
BRK	52	336	2
BRK	52	336	5
BRK	53	48	2
BRK	53	48	5
TAP	53	144	3
TAP	53	144	4
TAP	53	192	3
TAP	53	192	4
TAP	53	288	1
TAP	53	288	6
STR	54	0	6
SI_	54	0	6	96	48	3
TAP	54	0	7
TAP	54	192	0
STR	54	192	1
SI_	54	192	1	96	48	4
STR	55	0	6
SI_	55	0	6	96	48	3
TAP	55	0	7
TAP	55	192	0
STR	55	192	1
SI_	55	192	1	96	48	4
TAP	56	0	6
TAP	56	0	7
TAP	56	96	0
TAP	56	96	5
TAP	56	144	0
HLD	56	144	5	96
STR	56	240	4
SF_	56	240	4	96	96	0
TAP	57	192	0
TAP	57	192	7
TAP	57	288	2
TAP	57	288	5
HLD	58	0	1	96
TAP	58	0	4
TAP	58	96	2
TAP	58	192	3
HLD	58	192	6	96
TAP	58	288	5
HLD	59	0	1	96
TAP	59	0	4
TAP	59	96	2
TAP	59	192	3
HLD	59	192	6	96
TAP	59	288	5
HLD	60	0	2	384
HLD	60	0	5	384
BRK	61	48	2
BRK	61	48	5
BRK	61	144	2
BRK	61	144	5
BRK	61	240	2
BRK	61	240	5
TAP	61	336	3
TAP	61	336	4
TAP	62	0	3
TAP	62	0	4
TAP	62	96	1
TAP	62	96	6
HLD	62	192	4	96
TAP	62	192	5
TAP	62	288	6
HLD	63	0	4	96
TAP	63	0	5
TAP	63	96	7
HLD	63	192	4	96
TAP	63	192	5
TAP	63	288	0
TAP	64	0	2
HLD	64	0	3	96
TAP	64	96	1
TAP	64	192	2
HLD	64	192	3	96
TAP	64	288	1
TAP	65	0	2
HLD	65	0	3	96
TAP	65	96	0
TAP	65	192	2
HLD	65	192	3	96
TAP	65	288	7
HLD	66	0	3	96
HLD	66	0	4	96
HLD	66	192	3	96
HLD	66	192	4	96
TAP	67	0	3
TAP	67	96	4
TAP	67	192	2
TAP	67	192	5
STR	68	0	3
SI_	68	0	3	96	96	7
STR	69	0	7
SUR	69	0	7	96	192	1
STR	70	0	1
SCR	70	0	1	96	192	6
TAP	71	0	7
TAP	71	96	0
TAP	71	192	1
TAP	71	192	6
TAP	72	0	2
TAP	72	96	2
TAP	72	96	3
TAP	72	192	5
STR	72	288	4
SCL	72	288	4	96	96	1
STR	72	288	5
SUL	72	288	5	96	96	0
BRK	73	288	1
BRK	73	288	6
HLD	74	0	2	96
TAP	74	96	3
HLD	74	192	3	96
TAP	74	288	2
STR	75	0	2
SUR	75	0	2	96	96	7
STR	75	0	3
SCR	75	0	3	96	96	6
HLD	76	0	5	96
TAP	76	96	4
HLD	76	192	4	96
TAP	76	288	5
STR	77	0	4
SCL	77	0	4	96	96	1
STR	77	0	5
SUL	77	0	5	96	96	0
STR	78	0	2
SUR	78	0	2	96	96	7
STR	78	0	3
SCR	78	0	3	96	96	6
TAP	78	288	6
TAP	78	288	7
STR	79	0	4
SCL	79	0	4	96	96	1
STR	79	0	5
SUL	79	0	5	96	96	0
TAP	79	288	0
TAP	79	288	1
TAP	80	0	6
TAP	80	0	7
TAP	80	96	4
TAP	80	96	5
TAP	80	192	2
TAP	80	192	3
TAP	80	288	0
TAP	80	288	1
TAP	81	0	0
TAP	81	0	7
TAP	81	96	0
TAP	81	96	7
BRK	81	192	1
BRK	81	192	6
STR	82	0	0
SI_	82	0	0	96	48	5
STR	82	0	1
SI_	82	0	1	96	48	4
STR	82	192	6
SI_	82	192	6	96	48	3
STR	82	192	7
SI_	82	192	7	96	48	2
STR	83	0	0
SI_	83	0	0	96	48	5
STR	83	0	1
SI_	83	0	1	96	48	4
STR	83	192	6
SI_	83	192	6	96	48	3
STR	83	192	7
SI_	83	192	7	96	48	2
TAP	84	0	0
TAP	84	0	1
TAP	84	96	2
TAP	84	96	7
HLD	84	144	2	96
TAP	84	144	7
STR	84	240	3
SF_	84	240	3	96	96	7
TAP	85	192	0
TAP	85	192	7
TAP	85	288	1
TAP	85	288	6
TAP	86	0	0
HLD	86	0	5	96
TAP	86	96	6
HLD	86	192	2	96
TAP	86	192	7
TAP	86	288	1
TAP	87	0	0
HLD	87	0	5	96
TAP	87	96	6
HLD	87	192	2	96
TAP	87	192	7
TAP	87	288	1
TAP	88	0	0
TAP	88	0	7
TAP	88	96	0
TAP	88	96	7
HLD	88	192	2	96
HLD	88	192	5	96
BRK	88	336	2
BRK	88	336	5
BRK	89	48	2
BRK	89	48	5
TAP	89	144	3
TAP	89	144	4
TAP	89	192	3
TAP	89	192	4
TAP	89	288	1
TAP	89	288	6
STR	90	0	6
SI_	90	0	6	96	48	3
STR	90	0	7
SI_	90	0	7	96	48	2
STR	90	192	0
SI_	90	192	0	96	48	5
STR	90	192	1
SI_	90	192	1	96	48	4
STR	91	0	6
SI_	91	0	6	96	48	3
STR	91	0	7
SI_	91	0	7	96	48	2
STR	91	192	0
SI_	91	192	0	96	48	5
STR	91	192	1
SI_	91	192	1	96	48	4
TAP	92	0	6
TAP	92	0	7
TAP	92	96	0
TAP	92	96	5
TAP	92	144	0
HLD	92	144	5	96
STR	92	240	4
SF_	92	240	4	96	96	0
TAP	93	192	0
TAP	93	192	7
TAP	93	288	1
TAP	93	288	6
HLD	94	0	2	96
TAP	94	0	7
TAP	94	96	1
TAP	94	192	0
HLD	94	192	5	96
TAP	94	288	6
HLD	95	0	2	96
TAP	95	0	7
TAP	95	96	1
TAP	95	192	0
HLD	95	192	5	96
TAP	95	288	6
HLD	96	0	2	384
HLD	96	0	5	384
BRK	97	48	2
BRK	97	48	5
BRK	97	144	2
BRK	97	144	5
BRK	97	240	2
BRK	97	240	5
STR	97	336	3
SXR	97	336	3	96	240	0
STR	97	336	4
SXL	97	336	4	96	240	7
TAP	98	0	3
TAP	98	0	4
BRK	99	48	1
BRK	99	48	4
BRK	99	144	1
BRK	99	144	4
BRK	99	240	1
BRK	99	240	4
STR	99	336	2
SXR	99	336	2	96	240	7
STR	99	336	3
SXL	99	336	3	96	240	6
TAP	100	0	2
TAP	100	0	3
BRK	101	48	3
BRK	101	48	6
BRK	101	144	3
BRK	101	144	6
BRK	101	240	3
BRK	101	240	6
STR	101	336	4
SXR	101	336	4	96	240	1
STR	101	336	5
SXL	101	336	5	96	240	0
TAP	102	0	4
TAP	102	0	5
BRK	103	48	1
BRK	103	48	6
BRK	103	144	1
BRK	103	144	6
BRK	103	240	1
BRK	103	240	6
STR	103	336	0
SXL	103	336	0	96	240	3
STR	103	336	7
SXR	103	336	7	96	240	4
TAP	104	0	0
TAP	104	0	7
TAP	105	0	1
TAP	105	0	3
TAP	105	96	3
TAP	105	96	4
TAP	105	192	4
TAP	105	192	6
TAP	105	288	3
TAP	105	288	4
TAP	106	0	1
TAP	106	96	2
TAP	106	216	3
HLD	106	336	4	432

T_REC_TAP	304
T_REC_BRK	50
T_REC_XTP	0
T_REC_HLD	88
T_REC_XHO	0
T_REC_STR	54
T_REC_BST	0
T_REC_XST	0
T_REC_TTP	0
T_REC_THO	0
T_REC_SLD	54
T_REC_ALL	550
T_NUM_TAP	358
T_NUM_BRK	50
T_NUM_HLD	88
T_NUM_SLD	54
T_NUM_ALL	550
T_JUDGE_TAP	408
T_JUDGE_HLD	271
T_JUDGE_SLD	54
T_JUDGE_ALL	733
TTM_EACHPAIRS	179
TTM_SCR_TAP	179000
TTM_SCR_BRK	130000
TTM_SCR_HLD	88000
TTM_SCR_SLD	81000
TTM_SCR_ALL	478000
TTM_SCR_S	458850
TTM_SCR_SS	473000
TTM_RAT_ACV	10105

