VERSION	0.00.00	1.03.00
FES_MODE	0
BPM_DEF	184.000	184.000	184.000	184.000
MET_DEF	4	4
RESOLUTION	384
CLK_DEF	384
COMPATIBLE_CODE	MA2

BPM	0	0	184.000
MET	0	0	4	4

TAP	1	0	0
TAP	1	96	0
TAP	1	192	0
TAP	2	0	1
TAP	2	96	1
TAP	2	192	0
TAP	2	192	1
TAP	3	0	6
TAP	3	96	6
TAP	3	192	6
TAP	3	192	7
TAP	4	0	0
TAP	4	96	0
TAP	4	192	7
TAP	4	288	7
TAP	5	0	0
TAP	5	0	7
TAP	5	192	1
TAP	5	192	6
TAP	6	0	2
TAP	6	96	2
TAP	6	192	2
TAP	6	192	3
TAP	7	0	5
TAP	7	96	5
TAP	7	192	4
TAP	7	192	5
TAP	8	0	3
TAP	8	96	3
TAP	8	192	3
TAP	8	192	4
BRK	9	0	3
BRK	9	0	4
BRK	9	192	3
BRK	9	192	4
TAP	10	0	2
TAP	10	96	2
TAP	10	192	3
TAP	11	0	5
TAP	11	96	5
TAP	11	192	4
TAP	12	0	2
TAP	12	96	3
TAP	12	192	5
TAP	12	288	4
TAP	13	0	3
TAP	13	96	4
TAP	13	192	3
TAP	14	0	5
TAP	14	96	5
TAP	14	192	4
TAP	14	192	5
TAP	15	0	3
TAP	15	0	4
TAP	15	192	2
TAP	15	288	2
TAP	16	0	2
TAP	16	0	3
TAP	16	192	3
TAP	16	192	4
TAP	17	0	3
TAP	17	96	4
TAP	17	192	2
TAP	17	192	5
TAP	18	0	5
TAP	18	96	5
TAP	18	192	4
TAP	18	192	5
TAP	19	0	3
TAP	19	0	4
TAP	19	192	2
BRK	19	288	2
BRK	20	0	2
BRK	20	0	3
STR	20	192	3
SI_	20	192	3	96	192	0
STR	20	192	4
SI_	20	192	4	96	192	7
TAP	22	0	1
TAP	22	96	1
TAP	22	192	0
TAP	22	192	1
TAP	23	0	0
TAP	23	0	7
TAP	23	192	6
TAP	23	192	7
TAP	23	288	6
TAP	23	288	7
STR	24	0	6
SI_	24	0	6	96	192	3
STR	24	0	7
SI_	24	0	7	96	192	2
TAP	25	0	1
TAP	25	96	0
TAP	25	192	0
TAP	25	192	1
TAP	26	0	1
TAP	26	96	1
TAP	26	192	0
TAP	26	192	1
TAP	27	0	0
TAP	27	0	7
TAP	27	192	6
TAP	27	288	6
TAP	28	0	6
TAP	28	0	7
TAP	28	192	6
TAP	28	192	7
TAP	29	0	6
TAP	29	96	7
TAP	29	192	0
TAP	29	192	5
HLD	30	0	1	192
STR	30	192	0
SUL	30	192	0	96	288	3
HLD	32	0	2	192
STR	32	192	3
SUR	32	192	3	96	288	0
HLD	34	0	1	192
TAP	34	192	0
HLD	35	0	6	192
TAP	35	192	7
TAP	36	0	0
TAP	36	0	7
STR	36	192	0
SCR	36	192	0	96	288	3
STR	36	192	7
SCL	36	192	7	96	288	4
TAP	38	0	3
TAP	38	96	3
TAP	38	192	2
TAP	39	0	1
TAP	39	96	1
TAP	39	192	0
TAP	40	0	7
TAP	40	96	7
TAP	40	192	6
TAP	41	0	5
TAP	41	96	5
TAP	41	192	4
TAP	42	0	3
TAP	42	96	3
TAP	42	192	2
TAP	42	192	3
TAP	43	0	1
TAP	43	96	1
TAP	43	192	0
TAP	43	192	1
HLD	44	0	0	192
TAP	45	0	0
TAP	45	0	7
TAP	45	96	0
TAP	45	96	7
TAP	45	192	0
TAP	45	192	7
BRK	46	0	1
TAP	46	96	1
TAP	46	192	0
TAP	46	192	1
TAP	47	0	6
TAP	47	96	6
TAP	47	192	6
TAP	47	192	7
TAP	48	0	1
TAP	48	96	0
TAP	48	96	1
TAP	48	192	6
TAP	48	288	6
TAP	48	288	7
HLD	49	0	0	96
HLD	49	0	7	96
TAP	49	192	0
TAP	49	192	7
TAP	50	0	7
TAP	50	96	0
TAP	50	192	0
TAP	50	192	7
STR	51	0	6
SI_	51	0	6	96	192	3
STR	51	0	7
SI_	51	0	7	96	192	2
TAP	52	0	4
HLD	52	192	3	384
BRK	53	0	5
BRK	53	96	5
BRK	53	192	5
TAP	54	0	6
TAP	54	96	6
TAP	54	192	6
TAP	54	192	7
TAP	55	0	1
TAP	55	96	1
TAP	55	192	0
TAP	55	192	1
TAP	56	0	6
TAP	56	96	6
TAP	56	96	7
TAP	56	192	1
TAP	56	288	0
TAP	56	288	1
HLD	57	0	0	96
HLD	57	0	7	96
TAP	57	192	0
TAP	57	192	7
TAP	58	0	0
TAP	58	96	7
TAP	58	192	0
TAP	58	192	7
STR	59	0	0
SI_	59	0	0	96	192	5
STR	59	0	1
SI_	59	0	1	96	192	4
TAP	60	0	3
HLD	60	192	4	384
BRK	61	0	2
BRK	61	96	2
BRK	61	192	2
TAP	62	0	5
TAP	62	96	5
TAP	62	192	4
TAP	63	0	2
TAP	63	96	2
TAP	63	192	3
TAP	64	0	5
TAP	64	96	4
TAP	64	192	2
TAP	64	288	3
TAP	65	0	4
TAP	65	96	3
TAP	65	192	4
TAP	66	0	3
TAP	66	0	4
TAP	66	96	3
TAP	66	192	2
TAP	67	0	3
TAP	67	0	4
TAP	67	96	3
TAP	67	192	2
TAP	68	0	3
TAP	68	0	4
TAP	68	96	4
TAP	68	192	5
TAP	69	0	3
TAP	69	0	4
TAP	69	96	4
TAP	69	192	5
TAP	70	0	2
TAP	70	0	3
TAP	70	96	2
TAP	70	192	1
TAP	71	0	2
TAP	71	0	3
TAP	71	96	2
TAP	71	192	1
TAP	72	0	4
TAP	72	0	5
TAP	72	96	5
TAP	72	192	6
TAP	73	0	4
TAP	73	0	5
TAP	73	96	5
BRK	73	192	6
STR	74	0	2
SI_	74	0	2	96	120	0
TAP	74	0	3
STR	75	0	2
SI_	75	0	2	96	120	0
TAP	75	0	3
TAP	76	0	4
STR	76	0	5
SI_	76	0	5	96	120	7
TAP	77	0	5
TAP	77	96	4
TAP	77	192	3
TAP	77	192	6
STR	78	0	2
SI_	78	0	2	96	144	7
TAP	78	0	3
STR	79	0	2
SI_	79	0	2	96	144	7
TAP	79	0	3
TAP	80	0	4
STR	80	0	5
SI_	80	0	5	96	144	0
TAP	81	0	4
TAP	81	0	5
TAP	81	96	4
TAP	81	96	5
TAP	81	192	3
TAP	81	192	6
BRK	82	0	6
TAP	82	96	7
TAP	82	192	6
TAP	82	192	7
TAP	83	0	1
TAP	83	96	0
TAP	83	192	0
TAP	83	192	1
TAP	84	0	6
TAP	84	96	6
TAP	84	96	7
TAP	84	192	1
TAP	84	288	0
TAP	84	288	1
TAP	85	0	0
TAP	85	0	7
TAP	85	96	0
TAP	85	96	7
TAP	85	192	1
TAP	85	192	6
TAP	86	0	1
TAP	86	96	0
TAP	86	96	1
TAP	86	192	6
TAP	86	288	6
TAP	86	288	7
STR	87	0	0
SI_	87	0	0	96	192	5
STR	87	0	1
SI_	87	0	1	96	192	4
TAP	88	0	3
TAP	88	192	2
TAP	88	192	4
BRK	89	0	2
BRK	89	0	4
BRK	89	96	2
BRK	89	96	4
BRK	89	192	2
BRK	89	192	4
TAP	90	0	1
TAP	90	96	1
TAP	90	192	0
TAP	90	192	1
TAP	91	0	6
TAP	91	96	6
TAP	91	192	6
TAP	91	192	7
TAP	92	0	1
TAP	92	96	0
TAP	92	96	1
TAP	92	192	6
TAP	92	288	6
TAP	92	288	7
TAP	93	0	0
TAP	93	0	7
TAP	93	96	0
TAP	93	96	7
TAP	93	192	1
TAP	93	192	6
TAP	94	0	6
TAP	94	96	6
TAP	94	96	7
TAP	94	192	1
TAP	94	288	0
TAP	94	288	1
STR	95	0	6
SI_	95	0	6	96	192	3
STR	95	0	7
SI_	95	0	7	96	192	2
TAP	96	0	4
TAP	96	192	3
TAP	96	192	5
BRK	97	0	3
BRK	97	0	5
BRK	97	96	3
BRK	97	96	5
BRK	97	192	3
BRK	97	192	5
TAP	98	0	6
TAP	98	96	6
TAP	98	192	6
TAP	98	192	7
BRK	99	0	0
BRK	99	0	1
BRK	99	96	0
BRK	99	96	1
BRK	99	192	0
BRK	99	192	1
TAP	100	0	1
TAP	100	96	1
TAP	100	192	0
TAP	100	192	1
BRK	101	0	6
BRK	101	0	7
BRK	101	96	6
BRK	101	96	7
BRK	101	192	6
BRK	101	192	7
TAP	102	0	6
TAP	102	96	6
TAP	102	96	7
TAP	102	192	1
TAP	102	288	0
TAP	102	288	1
BRK	103	0	0
BRK	103	0	7
BRK	103	96	0
BRK	103	96	7
BRK	103	192	0
BRK	103	192	7
TAP	104	0	1
TAP	104	96	0
TAP	104	192	6
TAP	104	288	7
TAP	105	0	0
TAP	105	96	0
TAP	105	192	7
TAP	105	288	7
STR	106	0	0
SF_	106	0	0	96	336	4

T_REC_TAP	307
T_REC_BRK	46
T_REC_XTP	0
T_REC_HLD	11
T_REC_XHO	0
T_REC_STR	23
T_REC_BST	0
T_REC_XST	0
T_REC_TTP	0
T_REC_THO	0
T_REC_SLD	23
T_REC_ALL	410
T_NUM_TAP	330
T_NUM_BRK	46
T_NUM_HLD	11
T_NUM_SLD	23
T_NUM_ALL	410
T_JUDGE_TAP	376
T_JUDGE_HLD	44
T_JUDGE_SLD	23
T_JUDGE_ALL	443
TTM_EACHPAIRS	111
TTM_SCR_TAP	165000
TTM_SCR_BRK	119600
TTM_SCR_HLD	11000
TTM_SCR_SLD	34500
TTM_SCR_ALL	330100
TTM_SCR_S	315750
TTM_SCR_SS	325500
TTM_RAT_ACV	10141

