VERSION	0.00.00	1.03.00
FES_MODE	0
BPM_DEF	184.000	184.000	184.000	184.000
MET_DEF	4	4
RESOLUTION	384
CLK_DEF	384
COMPATIBLE_CODE	MA2

BPM	0	0	184.000
MET	0	0	4	4

TAP	2	0	0
TAP	2	192	0
TAP	3	0	1
TAP	3	192	1
TAP	4	0	2
TAP	4	192	2
TAP	5	0	3
TAP	5	96	4
TAP	5	192	3
TAP	6	0	4
TAP	6	192	4
TAP	7	0	5
TAP	7	192	5
TAP	8	0	6
TAP	8	192	6
TAP	9	0	7
BRK	10	0	0
TAP	10	192	0
TAP	11	0	0
TAP	12	0	7
TAP	12	192	7
TAP	13	0	7
HLD	14	0	0	384
HLD	16	0	7	384
HLD	18	0	6	384
HLD	20	0	5	384
HLD	22	0	4	384
HLD	22	0	5	384
HLD	24	0	2	384
HLD	24	0	3	384
HLD	26	0	0	384
HLD	26	0	1	384
HLD	28	0	6	384
HLD	28	0	7	384
STR	30	0	0
SI_	30	0	0	96	288	4
STR	32	0	7
SI_	32	0	7	96	288	3
STR	34	0	0
SI_	34	0	0	96	288	5
STR	36	0	7
SI_	36	0	7	96	288	2
STR	38	0	3
SI_	38	0	3	96	288	0
STR	40	0	4
SI_	40	0	4	96	288	7
TAP	42	0	0
TAP	42	192	0
TAP	43	0	7
TAP	43	192	7
TAP	44	0	0
TAP	44	0	7
TAP	45	0	0
TAP	45	0	7
BRK	45	192	0
BRK	45	192	7
TAP	46	0	6
TAP	46	96	6
TAP	46	192	6
TAP	47	0	7
TAP	47	96	7
TAP	47	192	7
TAP	48	0	0
TAP	48	96	0
TAP	48	192	0
TAP	49	0	1
TAP	49	96	1
TAP	49	192	0
TAP	49	192	1
TAP	50	0	2
TAP	50	96	2
TAP	50	192	2
TAP	51	0	3
TAP	51	96	3
TAP	51	192	3
TAP	52	0	4
TAP	52	96	4
TAP	52	192	4
TAP	53	0	5
TAP	53	96	5
TAP	53	192	5
TAP	54	0	4
TAP	54	96	4
TAP	54	192	4
TAP	55	0	3
TAP	55	96	3
TAP	55	192	3
TAP	56	0	2
TAP	56	96	2
TAP	56	192	2
TAP	57	0	1
TAP	57	96	1
TAP	57	192	0
TAP	57	192	1
TAP	58	0	0
TAP	58	96	0
TAP	58	192	0
TAP	59	0	7
TAP	59	96	7
TAP	59	192	7
TAP	60	0	6
TAP	60	96	6
TAP	60	192	6
TAP	61	0	0
TAP	61	0	7
TAP	61	96	0
TAP	61	96	7
TAP	61	192	0
TAP	61	192	7
BRK	62	0	0
BRK	62	0	7
TAP	63	0	1
TAP	63	192	1
TAP	64	0	2
TAP	64	192	2
TAP	65	0	3
TAP	65	192	3
TAP	66	0	2
TAP	66	0	3
TAP	66	192	2
TAP	66	192	3
TAP	67	0	2
TAP	67	0	3
TAP	68	0	4
TAP	68	0	5
TAP	68	192	4
TAP	68	192	5
TAP	69	0	4
TAP	69	0	5
TAP	70	0	6
TAP	70	0	7
TAP	70	192	6
TAP	70	192	7
TAP	71	0	6
TAP	71	0	7
TAP	72	0	0
TAP	72	0	1
TAP	72	192	0
TAP	72	192	1
TAP	73	0	0
TAP	73	0	1
TAP	74	0	2
TAP	74	192	2
TAP	75	0	1
TAP	75	192	1
TAP	76	0	0
TAP	76	192	0
TAP	77	0	0
TAP	77	0	7
TAP	78	0	6
TAP	78	192	6
TAP	79	0	5
TAP	79	192	5
TAP	80	0	4
TAP	80	192	4
TAP	81	0	3
TAP	81	0	4
TAP	82	0	5
TAP	82	96	5
TAP	82	192	5
TAP	83	0	6
TAP	83	96	6
TAP	83	192	6
TAP	84	0	7
TAP	84	96	7
TAP	84	192	7
TAP	85	0	0
TAP	85	0	1
TAP	85	96	0
TAP	85	96	1
TAP	85	192	0
TAP	85	192	1
TAP	86	0	2
TAP	86	96	2
TAP	86	192	2
TAP	87	0	3
TAP	87	96	3
TAP	87	192	3
TAP	88	0	4
TAP	88	96	4
TAP	88	192	4
TAP	89	0	4
TAP	89	0	5
TAP	89	96	4
TAP	89	96	5
TAP	89	192	4
TAP	89	192	5
TAP	90	0	3
TAP	90	96	3
TAP	90	192	3
TAP	91	0	2
TAP	91	96	2
TAP	91	192	2
TAP	92	0	1
TAP	92	96	1
TAP	92	192	1
TAP	93	0	0
TAP	93	0	7
TAP	93	96	0
TAP	93	96	7
TAP	93	192	0
TAP	93	192	7
TAP	94	0	6
TAP	94	96	6
TAP	94	192	6
TAP	95	0	5
TAP	95	96	5
TAP	95	192	5
TAP	96	0	4
TAP	96	96	4
TAP	96	192	4
TAP	97	0	2
TAP	97	0	3
TAP	97	96	2
TAP	97	96	3
TAP	97	192	2
TAP	97	192	3
TAP	98	0	2
TAP	98	0	3
TAP	99	0	0
TAP	99	0	1
TAP	99	96	0
TAP	99	96	1
TAP	99	192	0
TAP	99	192	1
TAP	100	0	0
TAP	100	0	1
TAP	101	0	6
TAP	101	0	7
TAP	101	96	6
TAP	101	96	7
TAP	101	192	6
TAP	101	192	7
TAP	102	0	6
TAP	102	0	7
TAP	103	0	0
TAP	103	0	1
TAP	103	96	0
TAP	103	96	1
TAP	103	192	0
TAP	103	192	1
TAP	104	0	0
TAP	104	0	1
TAP	105	0	7
TAP	105	192	7
STR	106	0	7
SI_	106	0	7	96	288	3

T_REC_TAP	216
T_REC_BRK	5
T_REC_XTP	0
T_REC_HLD	12
T_REC_XHO	0
T_REC_STR	7
T_REC_BST	0
T_REC_XST	0
T_REC_TTP	0
T_REC_THO	0
T_REC_SLD	7
T_REC_ALL	247
T_NUM_TAP	223
T_NUM_BRK	5
T_NUM_HLD	12
T_NUM_SLD	7
T_NUM_ALL	247
T_JUDGE_TAP	228
T_JUDGE_HLD	96
T_JUDGE_SLD	7
T_JUDGE_ALL	331
TTM_EACHPAIRS	52
TTM_SCR_TAP	111500
TTM_SCR_BRK	13000
TTM_SCR_HLD	12000
TTM_SCR_SLD	10500
TTM_SCR_ALL	147000
TTM_SCR_S	142150
TTM_SCR_SS	146500
TTM_RAT_ACV	10034

