VERSION	0.00.00	1.03.00
FES_MODE	0
BPM_DEF	138.000	138.000	138.000	138.000
MET_DEF	4	4
RESOLUTION	384
CLK_DEF	384
COMPATIBLE_CODE	MA2

BPM	0	0	138.000
MET	0	0	4	4

BRK	1	0	2
BRK	1	48	3
BRK	1	96	2
BRK	1	144	1
BRK	1	240	0
BRK	1	288	0
BRK	2	0	7
BRK	2	48	7
BRK	2	144	6
BRK	2	192	6
BRK	2	288	0
BRK	2	288	7
HLD	3	0	2	48
TAP	3	48	3
TAP	3	72	2
TAP	3	144	1
TAP	3	144	3
HLD	3	192	5	48
TAP	3	240	4
TAP	3	264	5
TAP	3	336	4
TAP	3	336	6
HLD	4	0	2	48
TAP	4	48	3
TAP	4	72	2
TAP	4	144	0
TAP	4	144	3
HLD	4	192	5	48
TAP	4	240	4
TAP	4	264	5
TAP	4	336	4
TAP	4	336	7
HLD	5	0	2	48
TAP	5	48	3
TAP	5	72	2
TAP	5	144	3
TAP	5	144	7
HLD	5	192	5	48
TAP	5	240	4
TAP	5	264	5
TAP	5	336	0
TAP	5	336	4
STR	6	0	1
SI_	6	0	1	96	48	5
STR	6	0	7
SI_	6	0	7	96	48	3
TAP	6	48	1
TAP	6	48	7
BRK	6	96	1
BRK	6	96	7
STR	6	192	0
SI_	6	192	0	96	48	4
STR	6	192	6
SI_	6	192	6	96	48	2
TAP	6	240	0
TAP	6	240	6
BRK	6	288	0
BRK	6	288	6
HLD	7	0	5	48
TAP	7	48	4
TAP	7	72	5
TAP	7	144	4
TAP	7	144	6
HLD	7	192	2	48
TAP	7	240	3
TAP	7	264	2
TAP	7	336	1
TAP	7	336	3
HLD	8	0	5	48
TAP	8	48	4
TAP	8	72	5
TAP	8	144	4
TAP	8	144	7
HLD	8	192	2	48
TAP	8	240	3
TAP	8	264	2
TAP	8	336	0
TAP	8	336	3
HLD	9	0	5	48
TAP	9	48	4
TAP	9	72	5
TAP	9	144	0
TAP	9	144	4
HLD	9	192	2	48
TAP	9	240	3
TAP	9	264	2
TAP	9	336	3
TAP	9	336	7
TAP	11	0	0
TAP	11	0	1
TAP	11	48	2
TAP	11	48	3
TAP	11	96	4
TAP	11	96	5
TAP	11	144	6
TAP	11	144	7
STR	11	192	0
SI_	11	192	0	96	48	4
TAP	11	240	1
TAP	11	240	7
BRK	11	288	0
TAP	12	0	6
TAP	12	0	7
TAP	12	48	4
TAP	12	48	5
TAP	12	96	2
TAP	12	96	3
TAP	12	144	0
TAP	12	144	1
STR	12	192	7
SI_	12	192	7	96	48	3
TAP	12	240	0
TAP	12	240	6
BRK	12	288	7
TAP	13	0	0
TAP	13	0	1
TAP	13	48	2
TAP	13	48	3
TAP	13	96	4
TAP	13	96	5
TAP	13	144	6
TAP	13	144	7
STR	13	192	0
SI_	13	192	0	96	48	4
TAP	13	240	1
TAP	13	240	7
BRK	13	288	0
STR	14	0	6
SI_	14	0	6	96	48	2
TAP	14	48	5
TAP	14	48	7
BRK	14	96	6
STR	14	192	1
SI_	14	192	1	96	48	5
TAP	14	240	0
TAP	14	240	2
BRK	14	288	1
TAP	15	0	6
TAP	15	0	7
TAP	15	48	2
TAP	15	48	3
TAP	15	96	6
TAP	15	96	7
TAP	15	144	1
TAP	15	144	4
STR	15	192	6
SI_	15	192	6	96	48	2
STR	15	192	7
SI_	15	192	7	96	48	3
TAP	15	240	0
TAP	15	240	5
BRK	15	288	6
BRK	15	288	7
TAP	16	0	0
TAP	16	0	1
TAP	16	48	4
TAP	16	48	5
TAP	16	96	0
TAP	16	96	1
TAP	16	144	3
TAP	16	144	6
STR	16	192	0
SI_	16	192	0	96	48	4
STR	16	192	1
SI_	16	192	1	96	48	5
TAP	16	240	2
TAP	16	240	7
BRK	16	288	0
BRK	16	288	1
TAP	17	0	6
TAP	17	0	7
TAP	17	48	2
TAP	17	48	3
TAP	17	96	6
TAP	17	96	7
TAP	17	144	1
TAP	17	144	4
STR	17	192	6
SI_	17	192	6	96	48	2
STR	17	192	7
SI_	17	192	7	96	48	3
TAP	17	240	0
TAP	17	240	5
BRK	17	288	6
BRK	17	288	7
STR	18	0	0
SI_	18	0	0	96	48	4
STR	18	0	1
SI_	18	0	1	96	48	5
TAP	18	48	2
TAP	18	48	7
BRK	18	96	0
BRK	18	96	1
STR	18	192	6
SI_	18	192	6	96	48	2
STR	18	192	7
SI_	18	192	7	96	48	3
TAP	18	240	0
TAP	18	240	5
BRK	18	288	6
BRK	18	288	7
TAP	19	0	0
TAP	19	48	1
TAP	19	48	7
TAP	19	96	2
TAP	19	144	1
STR	19	144	3
SI_	19	144	3	96	48	7
STR	19	240	2
SI_	19	240	2	96	48	0
BRK	19	240	3
BRK	19	336	2
TAP	19	336	7
TAP	20	0	7
TAP	20	48	0
TAP	20	48	6
TAP	20	96	5
STR	20	144	4
SI_	20	144	4	96	48	0
TAP	20	144	6
BRK	20	240	4
STR	20	240	5
SI_	20	240	5	96	48	7
TAP	20	336	0
BRK	20	336	5
TAP	21	0	0
TAP	21	48	1
TAP	21	48	7
TAP	21	96	2
TAP	21	144	1
STR	21	144	3
SI_	21	144	3	96	48	7
STR	21	240	2
SI_	21	240	2	96	48	0
BRK	21	240	3
BRK	21	336	2
TAP	21	336	7
TAP	22	0	7
TAP	22	48	0
TAP	22	48	6
TAP	22	96	5
TAP	22	144	4
TAP	22	144	6
STR	22	192	3
SCL	22	192	3	96	48	0
STR	22	192	7
SCL	22	192	7	96	48	4
BRK	22	288	3
BRK	22	288	7
TAP	23	0	7
TAP	23	48	0
TAP	23	48	6
TAP	23	96	5
STR	23	144	4
SI_	23	144	4	96	48	0
TAP	23	144	6
BRK	23	240	4
STR	23	240	5
SI_	23	240	5	96	48	1
TAP	23	336	0
BRK	23	336	5
TAP	24	0	0
TAP	24	48	1
TAP	24	48	7
TAP	24	96	2
TAP	24	144	1
STR	24	144	3
SI_	24	144	3	96	48	7
STR	24	240	2
SI_	24	240	2	96	48	6
BRK	24	240	3
BRK	24	336	2
TAP	24	336	7
HLD	25	0	7	96
TAP	25	96	0
TAP	25	144	0
TAP	25	144	7
TAP	25	192	1
TAP	25	192	6
TAP	25	240	1
TAP	25	240	6
TAP	25	288	2
TAP	25	288	5
TAP	25	336	2
TAP	25	336	5
TAP	26	0	3
TAP	26	0	4
TAP	26	48	4
TAP	26	48	5
TAP	26	96	5
TAP	26	96	6
TAP	26	144	6
TAP	26	144	7
TAP	26	192	0
TAP	26	192	7
TAP	26	240	0
TAP	26	240	1
TAP	26	288	1
TAP	26	288	2
TAP	26	336	2
TAP	26	336	3
STR	27	0	3
SI_	27	0	3	96	48	7
STR	27	0	4
SI_	27	0	4	96	48	0
TAP	27	48	2
TAP	27	48	5
TAP	27	96	3
TAP	27	96	4
STR	27	192	3
SI_	27	192	3	96	48	7
STR	27	192	4
SI_	27	192	4	96	48	0
TAP	27	240	1
TAP	27	240	6
TAP	27	288	3
TAP	27	288	4
TAP	28	0	3
TAP	28	0	4
TAP	28	48	0
TAP	28	48	6
TAP	28	96	3
TAP	28	96	4
TAP	28	144	1
TAP	28	144	7
STR	28	192	0
SI_	28	192	0	96	48	4
STR	28	192	6
SI_	28	192	6	96	48	2
TAP	28	288	0
TAP	28	288	6
BRK	29	0	1
BRK	29	0	5
BRK	29	48	3
BRK	29	48	7
STR	29	96	0
SI_	29	96	0	96	48	4
TAP	29	192	0
STR	29	192	3
SI_	29	192	3	96	48	7
TAP	29	288	3
STR	29	288	4
SI_	29	288	4	96	48	6
TAP	30	0	4
BST	30	0	7
SI_	30	0	7	96	48	3
STR	30	96	6
SI_	30	96	6	96	48	4
TAP	30	96	7
STR	30	192	3
SI_	30	192	3	96	48	1
TAP	30	192	6
TAP	30	288	3
STR	30	288	4
SI_	30	288	4	96	48	0
BST	31	0	1
SI_	31	0	1	96	48	3
TAP	31	0	4
STR	31	96	0
SI_	31	96	0	96	48	4
TAP	31	96	1
TAP	31	192	0
BST	31	192	3
SI_	31	192	3	96	48	7
TAP	31	288	3
STR	31	288	4
SI_	31	288	4	96	48	6
TAP	32	0	4
BST	32	0	7
SI_	32	0	7	96	48	3
STR	32	96	6
SI_	32	96	6	96	48	4
TAP	32	96	7
BST	32	192	3
SF_	32	192	3	96	48	7
TAP	32	192	6
BRK	32	288	3
HLD	33	0	1	96
TAP	33	48	3
HLD	33	96	0	96
TAP	33	144	2
HLD	33	192	7	96
TAP	33	240	5
HLD	33	288	6	48
TAP	33	336	4
BRK	34	0	0
BRK	34	0	1
BRK	34	72	5
BRK	34	72	6
BST	34	144	2
SCL	34	144	2	96	96	5
BST	34	144	3
SUL	34	144	3	96	96	4
HLD	35	0	5	96
TAP	35	48	7
HLD	35	96	3	96
TAP	35	144	0
HLD	35	192	4	96
TAP	35	240	7
HLD	35	288	2	48
TAP	35	336	0
BRK	36	0	2
BRK	36	0	3
BRK	36	48	4
BRK	36	48	5
BRK	36	96	6
BRK	36	96	7
BRK	36	144	0
BRK	36	144	1
BRK	36	192	2
BRK	36	192	3
TAP	36	240	4
TAP	36	264	3
TAP	36	288	5
TAP	36	312	2
TAP	36	336	6
TAP	36	360	1
BST	37	0	7
SI_	37	0	7	96	48	4
TAP	37	48	3
STR	37	96	7
SI_	37	96	7	96	48	2
TAP	37	144	3
STR	37	192	7
SI_	37	192	7	96	48	4
TAP	37	240	3
STR	37	288	7
SCR	37	288	7	96	48	2
TAP	37	336	3
BST	38	0	7
SCL	38	0	7	96	48	4
TAP	38	48	3
STR	38	96	7
SCR	38	96	7	96	48	2
TAP	38	144	3
STR	38	192	7
SI_	38	192	7	96	48	3
TAP	38	240	3
TAP	38	288	7
TAP	38	336	2
BST	39	0	0
SI_	39	0	0	96	48	3
TAP	39	48	4
STR	39	96	0
SI_	39	96	0	96	48	5
TAP	39	144	4
BST	39	192	0
SI_	39	192	0	96	48	3
TAP	39	240	4
STR	39	288	0
SCL	39	288	0	96	48	5
TAP	39	336	4
BST	40	0	0
SCR	40	0	0	96	48	3
TAP	40	48	4
STR	40	96	0
SCL	40	96	0	96	48	5
TAP	40	144	4
BST	40	192	0
SI_	40	192	0	96	48	4
TAP	40	240	4
BRK	40	288	0
TAP	40	336	5
HLD	41	0	6	48
TAP	41	48	7
HLD	41	96	1	48
TAP	41	144	0
HLD	41	192	5	48
TAP	41	240	7
HLD	41	288	2	48
TAP	41	336	0
BRK	42	0	6
BRK	42	0	7
BRK	42	72	1
BRK	42	72	2
BST	42	144	4
SUR	42	144	4	96	96	3
BST	42	144	5
SCR	42	144	5	96	96	2
STR	43	0	0
SI_	43	0	0	96	48	4
STR	43	0	7
SI_	43	0	7	96	48	3
TAP	43	48	1
TAP	43	48	6
BRK	43	96	0
BRK	43	96	7
STR	43	192	0
SI_	43	192	0	96	48	4
STR	43	192	7
SI_	43	192	7	96	48	3
TAP	43	240	2
TAP	43	240	5
BRK	43	288	0
BRK	43	288	7
STR	44	0	0
SI_	44	0	0	96	48	4
STR	44	0	7
SI_	44	0	7	96	48	3
TAP	44	48	3
TAP	44	48	4
BRK	44	96	0
BRK	44	96	7
BRK	44	192	3
BRK	44	216	4
BRK	44	240	3
BRK	44	264	4
BRK	44	288	3
BRK	44	312	4
BRK	44	336	3
BRK	44	360	4
BST	45	0	1
SI_	45	0	1	96	24	4
TAP	45	48	0
STR	45	96	6
SI_	45	96	6	96	24	3
TAP	45	144	7
STR	45	192	1
SCR	45	192	1	96	24	4
TAP	45	240	0
STR	45	288	6
SCL	45	288	6	96	24	3
TAP	45	336	7
BST	46	0	1
SI_	46	0	1	96	24	5
TAP	46	48	0
STR	46	96	6
SI_	46	96	6	96	24	2
TAP	46	144	7
STR	46	192	1
SCR	46	192	1	96	24	3
TAP	46	240	0
STR	46	288	6
SCL	46	288	6	96	24	4
TAP	46	336	7
BST	47	0	2
SI_	47	0	2	96	24	7
TAP	47	48	3
STR	47	96	5
SI_	47	96	5	96	24	0
TAP	47	144	4
BST	47	192	2
SCL	47	192	2	96	24	7
TAP	47	240	3
STR	47	288	5
SCR	47	288	5	96	24	0
TAP	47	336	4
BST	48	0	3
SI_	48	0	3	96	48	7
TAP	48	48	6
STR	48	96	4
SI_	48	96	4	96	48	0
TAP	48	144	1
BST	48	192	2
SCL	48	192	2	96	48	5
TAP	48	240	6
HLD	49	0	0	48
BRK	49	0	7
TAP	49	48	2
BRK	49	96	0
HLD	49	96	7	48
TAP	49	144	5
HLD	49	192	0	48
BRK	49	192	7
TAP	49	240	2
BRK	49	288	0
HLD	49	288	7	48
TAP	49	336	4
BRK	50	0	0
BRK	50	0	7
BRK	50	72	3
BRK	50	72	4
BST	50	144	0
SXL	50	144	0	96	96	3
BST	50	144	7
SXR	50	144	7	96	96	4
BRK	51	0	3
BRK	51	0	4
TAP	51	48	1
TAP	51	48	2
BRK	51	96	3
BRK	51	96	4
TAP	51	144	5
TAP	51	144	6
BRK	51	192	3
BRK	51	192	4
TAP	51	240	0
TAP	51	240	1
BRK	51	288	3
BRK	51	288	4
TAP	51	336	6
TAP	51	336	7
BRK	52	0	2
BRK	52	0	3
BRK	52	48	3
BRK	52	48	4
BRK	52	96	4
HLD	52	96	5	96
BRK	52	192	6
BRK	52	240	3
BRK	52	240	4
HLD	52	288	1	96
BRK	52	288	2
BRK	53	0	0
BRK	53	48	3
BRK	53	48	4
BRK	53	96	6
HLD	53	96	7	96
BRK	53	192	0
BRK	53	240	2
BRK	53	240	5
BRK	53	288	0
BRK	53	288	7
BRK	53	336	3
BRK	53	336	4
BRK	54	0	1
BRK	54	0	6
BRK	56	0	0
HLD	56	0	7	48
STR	56	48	1
SI_	56	48	1	96	48	5
HLD	56	72	7	72
TAP	56	144	1
HLD	56	192	7	48
STR	56	240	1
SI_	56	240	1	96	48	5
HLD	56	264	7	72
TAP	56	336	1
HLD	57	0	6	48
STR	57	48	1
SI_	57	48	1	96	48	4
HLD	57	72	6	72
TAP	57	144	1
HLD	57	192	6	48
STR	57	240	1
SI_	57	240	1	96	48	4
HLD	57	264	6	72
TAP	57	336	1
HLD	58	0	5	48
STR	58	48	0
SI_	58	48	0	96	48	4
HLD	58	72	5	72
TAP	58	144	0
HLD	58	192	5	48
STR	58	240	0
SI_	58	240	0	96	48	4
HLD	58	264	5	72
TAP	58	336	0
STR	59	0	7
SI_	59	0	7	96	48	3
TAP	59	48	1
TAP	59	48	5
BRK	59	96	7
STR	59	192	0
SI_	59	192	0	96	48	4
STR	59	192	6
SI_	59	192	6	96	48	2
TAP	59	240	2
TAP	59	240	4
BRK	59	288	0
BRK	59	288	6
HLD	60	0	0	48
TAP	60	0	7
STR	60	48	6
SI_	60	48	6	96	48	2
HLD	60	72	0	72
TAP	60	144	6
HLD	60	192	0	48
STR	60	240	6
SI_	60	240	6	96	48	2
HLD	60	264	0	72
TAP	60	336	6
HLD	61	0	1	48
STR	61	48	6
SI_	61	48	6	96	48	3
HLD	61	72	1	72
TAP	61	144	6
HLD	61	192	1	48
STR	61	240	6
SI_	61	240	6	96	48	3
HLD	61	264	1	72
TAP	61	336	6
HLD	62	0	2	48
STR	62	48	7
SI_	62	48	7	96	48	3
HLD	62	72	2	72
TAP	62	144	7
HLD	62	192	2	48
STR	62	240	7
SI_	62	240	7	96	48	3
HLD	62	264	2	72
TAP	62	336	7
STR	63	0	0
SI_	63	0	0	96	48	4
TAP	63	48	2
TAP	63	48	6
BRK	63	96	0
STR	63	192	1
SI_	63	192	1	96	48	5
STR	63	192	7
SI_	63	192	7	96	48	3
TAP	63	240	3
TAP	63	240	5
BRK	63	288	1
BRK	63	288	7
BRK	64	0	0

T_REC_TAP	303
T_REC_BRK	127
T_REC_XTP	0
T_REC_HLD	56
T_REC_XHO	0
T_REC_STR	87
T_REC_BST	23
T_REC_XST	0
T_REC_TTP	0
T_REC_THO	0
T_REC_SLD	110
T_REC_ALL	706
T_NUM_TAP	390
T_NUM_BRK	150
T_NUM_HLD	56
T_NUM_SLD	110
T_NUM_ALL	706
T_JUDGE_TAP	540
T_JUDGE_HLD	78
T_JUDGE_SLD	110
T_JUDGE_ALL	728
TTM_EACHPAIRS	183
TTM_SCR_TAP	195000
TTM_SCR_BRK	390000
TTM_SCR_HLD	56000
TTM_SCR_SLD	165000
TTM_SCR_ALL	806000
TTM_SCR_S	767300
TTM_SCR_SS	791000
TTM_RAT_ACV	10189

