VERSION	0.00.00	1.03.00
FES_MODE	0
BPM_DEF	138.000	138.000	138.000	138.000
MET_DEF	4	4
RESOLUTION	384
CLK_DEF	384
COMPATIBLE_CODE	MA2

BPM	0	0	138.000
MET	0	0	4	4

BRK	2	288	0
HLD	3	0	5	96
TAP	3	96	4
TAP	3	192	3
TAP	3	240	3
TAP	3	288	2
HLD	4	0	1	96
TAP	4	96	0
TAP	4	192	7
TAP	4	240	7
TAP	4	288	6
HLD	5	0	5	96
TAP	5	96	4
TAP	5	192	3
TAP	5	240	3
TAP	5	288	3
TAP	5	288	4
TAP	6	0	4
TAP	6	0	5
BRK	6	96	1
BRK	6	96	7
TAP	6	192	2
TAP	6	192	3
BRK	6	288	0
BRK	6	288	6
HLD	7	0	6	96
TAP	7	96	7
TAP	7	192	0
TAP	7	240	0
TAP	7	288	1
HLD	8	0	2	96
TAP	8	96	3
TAP	8	192	4
TAP	8	240	4
TAP	8	288	5
HLD	9	0	6	96
TAP	9	96	7
TAP	9	192	0
TAP	9	240	0
STR	9	288	0
SSL	9	288	0	96	288	4
TAP	9	288	7
TAP	11	0	5
TAP	11	48	5
TAP	11	96	4
TAP	11	192	2
TAP	11	192	3
BRK	11	288	1
BRK	11	288	4
TAP	12	0	2
TAP	12	48	2
TAP	12	96	3
TAP	12	192	4
TAP	12	192	5
BRK	12	288	3
BRK	12	288	6
TAP	13	0	6
TAP	13	48	6
TAP	13	96	7
TAP	13	192	0
TAP	13	192	1
BRK	13	288	2
BRK	13	288	7
TAP	14	0	2
TAP	14	0	3
BRK	14	96	1
BRK	14	96	6
TAP	14	192	4
TAP	14	192	5
BRK	14	288	1
BRK	14	288	6
TAP	15	0	2
TAP	15	48	2
TAP	15	96	3
TAP	15	192	4
TAP	15	192	5
BRK	15	288	3
BRK	15	288	6
TAP	16	0	5
TAP	16	48	5
TAP	16	96	4
TAP	16	192	2
TAP	16	192	3
BRK	16	288	1
BRK	16	288	4
TAP	17	0	1
TAP	17	48	1
TAP	17	96	0
TAP	17	192	6
TAP	17	192	7
BRK	17	288	0
BRK	17	288	5
TAP	18	0	4
TAP	18	0	5
BRK	18	96	1
BRK	18	96	6
TAP	18	192	2
TAP	18	192	3
BRK	18	288	1
BRK	18	288	6
TAP	19	0	5
TAP	19	48	4
TAP	19	96	3
HLD	19	144	6	96
BRK	19	240	0
BRK	19	336	0
TAP	20	0	2
TAP	20	48	3
TAP	20	96	4
HLD	20	144	1	96
BRK	20	240	7
BRK	20	336	7
TAP	21	0	5
TAP	21	48	4
TAP	21	96	3
HLD	21	144	6	96
BRK	21	240	0
BRK	21	336	0
TAP	22	0	7
TAP	22	48	6
TAP	22	96	5
TAP	22	192	3
TAP	22	192	4
BRK	22	288	0
BRK	22	288	7
TAP	23	0	5
TAP	23	48	4
TAP	23	96	5
HLD	23	144	6	96
BRK	23	240	0
BRK	23	336	0
TAP	24	0	2
TAP	24	48	3
TAP	24	96	2
HLD	24	144	1	96
BRK	24	240	7
BRK	24	336	7
TAP	25	0	4
TAP	25	0	6
TAP	25	48	4
TAP	25	48	6
TAP	25	96	4
TAP	25	96	6
TAP	25	192	1
TAP	25	192	3
TAP	25	240	1
TAP	25	240	3
TAP	25	288	1
TAP	25	288	3
TAP	26	0	5
TAP	26	0	7
TAP	26	48	5
TAP	26	48	7
TAP	26	96	5
TAP	26	96	7
TAP	26	192	0
TAP	26	192	2
TAP	26	240	0
TAP	26	240	2
TAP	26	288	0
TAP	26	288	2
TAP	27	0	0
TAP	27	0	5
TAP	27	48	0
TAP	27	48	5
TAP	27	96	0
TAP	27	96	5
TAP	27	192	2
TAP	27	192	7
TAP	27	240	2
TAP	27	240	7
TAP	27	288	2
TAP	27	288	7
TAP	28	0	0
TAP	28	0	7
TAP	28	48	0
TAP	28	48	7
STR	28	96	0
SI_	28	96	0	96	48	3
STR	28	96	7
SI_	28	96	7	96	48	4
TAP	28	288	2
TAP	28	288	5
TAP	29	0	4
TAP	29	0	5
TAP	29	48	6
TAP	29	96	0
TAP	29	96	7
TAP	29	192	4
TAP	29	192	5
TAP	29	240	6
TAP	29	288	0
TAP	29	288	7
TAP	30	0	2
TAP	30	0	3
TAP	30	48	1
TAP	30	96	0
TAP	30	96	7
TAP	30	192	2
TAP	30	192	3
TAP	30	240	1
TAP	30	288	0
TAP	30	288	7
HLD	31	0	4	96
TAP	31	0	5
HLD	31	96	3	96
STR	31	192	2
SCL	31	192	2	96	144	5
TAP	32	192	2
TAP	32	192	3
TAP	32	288	1
TAP	32	288	4
TAP	33	0	5
TAP	33	48	5
TAP	33	96	4
TAP	33	96	6
TAP	33	192	2
TAP	33	240	2
TAP	33	288	1
TAP	33	288	3
TAP	34	0	6
TAP	34	48	6
TAP	34	96	5
TAP	34	96	7
TAP	34	192	1
TAP	34	240	1
TAP	34	288	0
TAP	34	288	2
HLD	35	0	5	96
TAP	35	96	4
HLD	35	192	2	96
TAP	35	288	3
TAP	36	0	4
TAP	36	48	4
TAP	36	96	3
TAP	36	144	3
BRK	36	192	7
TAP	36	288	2
TAP	36	288	5
TAP	37	0	4
TAP	37	0	5
TAP	37	48	6
TAP	37	96	4
TAP	37	96	5
TAP	37	144	6
TAP	37	192	4
TAP	37	192	5
TAP	37	240	6
TAP	37	288	0
TAP	37	288	7
TAP	38	0	2
TAP	38	0	3
TAP	38	48	1
TAP	38	96	2
TAP	38	96	3
TAP	38	144	1
TAP	38	192	2
TAP	38	192	3
TAP	38	240	1
TAP	38	288	0
TAP	38	288	7
TAP	39	0	1
HLD	39	0	3	96
HLD	39	96	4	96
STR	39	192	5
SCR	39	192	5	96	144	3
SUR	39	192	5	96	144	3
TAP	40	192	6
TAP	40	192	7
TAP	40	288	0
TAP	40	288	5
TAP	41	0	1
TAP	41	0	3
TAP	41	48	2
TAP	41	96	4
TAP	41	96	6
TAP	41	192	4
TAP	41	192	6
TAP	41	240	5
TAP	41	288	1
TAP	41	288	3
TAP	42	0	0
TAP	42	0	2
TAP	42	48	1
TAP	42	96	5
TAP	42	96	7
TAP	42	192	5
TAP	42	192	7
TAP	42	240	6
TAP	42	288	0
TAP	42	288	2
TAP	43	0	0
TAP	43	0	1
TAP	43	48	0
TAP	43	48	1
BRK	43	96	2
BRK	43	96	7
TAP	43	192	6
TAP	43	192	7
TAP	43	240	6
TAP	43	240	7
BRK	43	288	0
BRK	43	288	5
TAP	44	0	3
TAP	44	0	4
TAP	44	48	3
TAP	44	48	4
BRK	44	96	1
BRK	44	96	6
STR	44	192	0
SI_	44	192	0	96	48	3
STR	44	192	7
SI_	44	192	7	96	48	4
TAP	45	0	4
TAP	45	0	5
TAP	45	48	6
TAP	45	96	4
TAP	45	96	5
TAP	45	144	7
TAP	45	192	4
TAP	45	192	5
TAP	45	240	7
TAP	45	288	0
TAP	45	288	7
TAP	46	0	2
TAP	46	0	3
TAP	46	48	1
TAP	46	96	2
TAP	46	96	3
TAP	46	144	0
TAP	46	192	2
TAP	46	192	3
TAP	46	240	0
TAP	46	288	0
TAP	46	288	7
HLD	47	0	5	96
TAP	47	0	7
HLD	47	96	4	96
STR	47	192	3
SCL	47	192	3	96	144	5
SUL	47	192	3	96	144	5
TAP	48	192	0
TAP	48	192	1
TAP	48	288	2
TAP	48	288	7
TAP	49	0	4
TAP	49	0	6
TAP	49	48	5
TAP	49	96	1
TAP	49	96	3
TAP	49	192	1
TAP	49	192	3
TAP	49	240	2
TAP	49	288	4
TAP	49	288	6
TAP	50	0	5
TAP	50	0	7
TAP	50	48	6
TAP	50	96	0
TAP	50	96	2
TAP	50	192	0
TAP	50	192	2
TAP	50	240	1
TAP	50	288	5
TAP	50	288	7
HLD	51	0	4	96
TAP	51	0	5
TAP	51	48	5
TAP	51	96	0
TAP	51	192	2
HLD	51	192	3	96
TAP	51	240	2
TAP	51	288	7
TAP	52	0	1
TAP	52	0	6
TAP	52	96	4
TAP	52	96	5
TAP	52	144	4
TAP	52	144	5
TAP	52	192	3
TAP	52	192	6
TAP	52	240	3
TAP	52	240	6
TAP	52	288	2
TAP	52	288	7
TAP	53	0	1
TAP	53	0	6
TAP	53	96	2
TAP	53	96	3
TAP	53	144	2
TAP	53	144	3
TAP	53	192	1
TAP	53	192	4
TAP	53	240	1
TAP	53	240	4
TAP	53	288	0
TAP	53	288	5
STR	54	0	0
SXL	54	0	0	96	288	3
STR	54	0	7
SXR	54	0	7	96	288	4
HLD	55	192	1	96
HLD	55	192	6	96
BRK	56	0	0
BRK	56	0	7
TAP	56	96	1
TAP	56	192	2
TAP	56	240	3
TAP	56	288	1
TAP	56	288	4
TAP	57	0	0
HLD	57	0	7	96
TAP	57	96	6
TAP	57	192	5
TAP	57	240	4
TAP	57	288	3
TAP	57	288	6
HLD	58	0	0	96
TAP	58	0	7
TAP	58	96	1
TAP	58	192	2
TAP	58	240	3
TAP	58	288	1
TAP	58	288	4
TAP	59	0	2
TAP	59	0	3
BRK	59	96	0
BRK	59	96	6
TAP	59	192	4
TAP	59	192	5
BRK	59	288	1
BRK	59	288	7
HLD	60	0	3	96
TAP	60	0	4
TAP	60	96	2
TAP	60	192	1
TAP	60	240	0
TAP	60	288	2
TAP	60	288	7
TAP	61	0	3
HLD	61	0	4	96
TAP	61	96	5
TAP	61	192	6
TAP	61	240	7
TAP	61	288	0
TAP	61	288	5
HLD	62	0	3	96
TAP	62	0	4
TAP	62	96	2
TAP	62	192	1
TAP	62	240	0
TAP	62	288	2
TAP	62	288	7
TAP	63	0	4
TAP	63	0	5
BRK	63	96	1
BRK	63	96	7
TAP	63	192	2
TAP	63	192	3
BST	63	288	0
SUL	63	288	0	96	48	4
SUR	63	288	0	96	48	4
BRK	63	288	6

T_REC_TAP	357
T_REC_BRK	53
T_REC_XTP	0
T_REC_HLD	28
T_REC_XHO	0
T_REC_STR	10
T_REC_BST	1
T_REC_XST	0
T_REC_TTP	0
T_REC_THO	0
T_REC_SLD	14
T_REC_ALL	463
T_NUM_TAP	367
T_NUM_BRK	54
T_NUM_HLD	28
T_NUM_SLD	14
T_NUM_ALL	463
T_JUDGE_TAP	421
T_JUDGE_HLD	56
T_JUDGE_SLD	14
T_JUDGE_ALL	491
TTM_EACHPAIRS	150
TTM_SCR_TAP	183500
TTM_SCR_BRK	140400
TTM_SCR_HLD	28000
TTM_SCR_SLD	21000
TTM_SCR_ALL	372900
TTM_SCR_S	356500
TTM_SCR_SS	367500
TTM_RAT_ACV	10146

