VERSION	0.00.00	1.03.00
FES_MODE	0
BPM_DEF	138.000	138.000	138.000	138.000
MET_DEF	4	4
RESOLUTION	384
CLK_DEF	384
COMPATIBLE_CODE	MA2

BPM	0	0	138.000
MET	0	0	4	4

TAP	3	0	1
TAP	3	96	1
TAP	3	192	0
TAP	3	192	1
TAP	4	0	6
TAP	4	96	6
TAP	4	192	6
TAP	4	192	7
TAP	5	0	0
TAP	5	96	0
TAP	5	192	0
TAP	5	192	7
TAP	6	0	7
BRK	6	96	7
TAP	6	192	0
BRK	6	288	0
TAP	7	0	6
TAP	7	96	6
TAP	7	192	6
TAP	7	192	7
TAP	8	0	1
TAP	8	96	1
TAP	8	192	0
TAP	8	192	1
TAP	9	0	7
TAP	9	96	7
TAP	9	192	0
TAP	9	192	7
STR	10	0	0
SI_	10	0	0	96	144	3
STR	10	0	7
SI_	10	0	7	96	144	4
TAP	11	0	2
TAP	11	96	2
TAP	11	192	3
BRK	11	288	3
BRK	11	288	4
TAP	12	0	5
TAP	12	96	5
TAP	12	192	4
BRK	12	288	3
BRK	12	288	4
TAP	13	0	2
TAP	13	96	2
TAP	13	192	3
BRK	13	288	3
BRK	13	288	4
TAP	14	0	5
BRK	14	96	5
TAP	14	192	6
BRK	14	288	6
TAP	15	0	6
TAP	15	96	6
TAP	15	192	7
BRK	15	288	0
BRK	15	288	7
TAP	16	0	1
TAP	16	96	1
TAP	16	192	0
BRK	16	288	0
BRK	16	288	7
TAP	17	0	6
TAP	17	96	6
TAP	17	192	7
BRK	17	288	0
BRK	17	288	7
TAP	18	0	1
BRK	18	96	0
BRK	18	96	1
TAP	18	192	6
BRK	18	288	6
BRK	18	288	7
TAP	19	0	1
TAP	19	96	1
BRK	19	192	0
BRK	19	192	1
BRK	19	288	0
BRK	19	288	1
TAP	20	0	6
TAP	20	96	6
BRK	20	192	6
BRK	20	192	7
BRK	20	288	6
BRK	20	288	7
TAP	21	0	0
TAP	21	96	0
BRK	21	192	0
BRK	21	192	7
BRK	21	288	0
BRK	21	288	7
TAP	22	0	1
TAP	22	96	2
TAP	22	192	3
BRK	22	288	3
BRK	22	288	4
TAP	23	0	5
TAP	23	96	5
BRK	23	192	4
BRK	23	192	5
BRK	23	288	4
BRK	23	288	5
TAP	24	0	2
TAP	24	96	2
BRK	24	192	2
BRK	24	192	3
BRK	24	288	2
BRK	24	288	3
HLD	25	0	5	96
TAP	25	96	4
HLD	25	192	2	96
TAP	25	288	3
HLD	26	0	6	96
TAP	26	96	5
HLD	26	192	1	96
TAP	26	288	2
HLD	27	0	6	96
HLD	27	0	7	96
HLD	27	192	0	96
HLD	27	192	1	96
HLD	28	0	0	96
HLD	28	0	7	96
BRK	29	0	0
BRK	29	0	7
TAP	29	96	7
TAP	29	192	6
TAP	29	192	7
TAP	30	0	0
TAP	30	0	7
TAP	30	96	0
TAP	30	192	0
TAP	30	192	1
TAP	31	0	1
TAP	31	96	0
TAP	31	96	1
TAP	31	192	6
TAP	31	288	6
TAP	31	288	7
TAP	32	0	0
TAP	32	0	7
TAP	32	96	0
TAP	32	96	7
TAP	32	192	1
TAP	32	192	6
HLD	33	0	6	96
TAP	33	96	7
TAP	33	192	6
TAP	33	192	7
STR	34	0	0
SI_	34	0	0	96	144	5
STR	34	0	1
SI_	34	0	1	96	144	4
HLD	35	0	5	96
TAP	35	96	4
HLD	35	192	2	96
TAP	35	288	3
BST	36	0	4
SI_	36	0	4	96	144	7
TAP	37	0	0
TAP	37	0	7
TAP	37	96	0
TAP	37	192	0
TAP	37	192	1
TAP	38	0	0
TAP	38	0	7
TAP	38	96	7
TAP	38	192	6
TAP	38	192	7
TAP	39	0	6
TAP	39	96	6
TAP	39	96	7
TAP	39	192	1
TAP	39	288	0
TAP	39	288	1
TAP	40	0	0
TAP	40	0	7
TAP	40	96	0
TAP	40	96	7
TAP	40	192	1
TAP	40	192	6
HLD	41	0	1	96
TAP	41	96	0
TAP	41	192	0
TAP	41	192	1
STR	42	0	6
SI_	42	0	6	96	144	3
STR	42	0	7
SI_	42	0	7	96	144	2
TAP	43	0	2
BRK	43	96	2
BRK	43	96	3
TAP	43	192	5
BRK	43	288	4
BRK	43	288	5
TAP	44	0	3
TAP	44	0	4
BRK	44	96	3
BRK	44	96	4
TAP	44	192	2
TAP	44	192	5
TAP	45	0	2
TAP	45	0	3
TAP	45	96	2
TAP	45	96	3
TAP	45	192	1
TAP	45	192	4
TAP	46	0	4
TAP	46	0	5
TAP	46	96	4
TAP	46	96	5
TAP	46	192	3
TAP	46	192	6
TAP	47	0	2
TAP	47	96	2
TAP	47	96	3
TAP	47	192	5
TAP	47	288	4
TAP	47	288	5
TAP	48	0	3
TAP	48	96	3
TAP	48	96	4
TAP	48	192	2
TAP	48	192	5
TAP	49	0	5
TAP	49	96	5
TAP	49	192	4
TAP	49	192	5
STR	50	0	2
SI_	50	0	2	96	144	7
STR	50	0	3
SI_	50	0	3	96	144	6
TAP	51	0	6
TAP	51	96	6
TAP	51	192	7
TAP	51	288	7
TAP	52	0	0
TAP	52	96	0
TAP	52	192	1
TAP	52	288	1
TAP	53	0	0
TAP	53	0	1
TAP	53	96	0
TAP	53	96	1
TAP	53	192	6
TAP	53	192	7
TAP	53	288	6
TAP	53	288	7
TAP	54	0	0
TAP	54	0	7
BRK	56	0	0
TAP	56	96	7
TAP	56	192	1
TAP	56	192	6
TAP	57	0	6
TAP	57	96	7
TAP	57	192	0
TAP	57	192	5
TAP	58	0	1
TAP	58	96	0
TAP	58	192	2
TAP	58	192	7
TAP	59	0	6
BRK	59	96	6
BRK	59	96	7
TAP	59	192	1
BRK	59	288	0
BRK	59	288	1
TAP	60	0	7
TAP	60	96	0
TAP	60	192	1
TAP	60	192	6
TAP	61	0	1
TAP	61	96	0
TAP	61	192	2
TAP	61	192	7
TAP	62	0	6
TAP	62	96	7
TAP	62	192	0
TAP	62	192	5
TAP	63	0	1
BRK	63	96	0
BRK	63	96	1
TAP	63	192	6
BRK	63	288	6
BRK	63	288	7
BRK	64	0	0
BRK	64	0	7

T_REC_TAP	193
T_REC_BRK	61
T_REC_XTP	0
T_REC_HLD	14
T_REC_XHO	0
T_REC_STR	8
T_REC_BST	1
T_REC_XST	0
T_REC_TTP	0
T_REC_THO	0
T_REC_SLD	9
T_REC_ALL	286
T_NUM_TAP	201
T_NUM_BRK	62
T_NUM_HLD	14
T_NUM_SLD	9
T_NUM_ALL	286
T_JUDGE_TAP	263
T_JUDGE_HLD	28
T_JUDGE_SLD	9
T_JUDGE_ALL	300
TTM_EACHPAIRS	84
TTM_SCR_TAP	100500
TTM_SCR_BRK	161200
TTM_SCR_HLD	14000
TTM_SCR_SLD	13500
TTM_SCR_ALL	289200
TTM_SCR_S	274550
TTM_SCR_SS	283000
TTM_RAT_ACV	10219

