VERSION	0.00.00	1.03.00
FES_MODE	0
BPM_DEF	138.000	138.000	138.000	138.000
MET_DEF	4	4
RESOLUTION	384
CLK_DEF	384
COMPATIBLE_CODE	MA2

BPM	0	0	138.000
MET	0	0	4	4

TAP	3	0	7
TAP	3	96	7
TAP	3	192	7
TAP	4	0	6
TAP	4	96	6
TAP	4	192	6
TAP	5	0	5
TAP	5	96	5
TAP	5	192	5
TAP	6	0	4
TAP	6	192	3
TAP	6	192	4
TAP	7	0	3
TAP	7	96	3
TAP	7	192	3
TAP	8	0	2
TAP	8	96	2
TAP	8	192	2
TAP	9	0	1
TAP	9	96	1
TAP	9	192	1
TAP	10	0	0
TAP	11	0	7
TAP	11	96	7
TAP	11	192	7
TAP	12	0	0
TAP	12	96	0
TAP	12	192	0
TAP	13	0	1
TAP	13	96	1
TAP	13	192	1
TAP	14	0	2
TAP	14	192	2
TAP	14	192	3
TAP	15	0	3
TAP	15	96	3
TAP	15	192	3
TAP	16	0	4
TAP	16	96	4
TAP	16	192	4
TAP	17	0	5
TAP	17	96	5
TAP	17	192	5
TAP	18	0	6
TAP	18	192	6
TAP	18	192	7
STR	19	0	0
SI_	19	0	0	96	288	3
STR	21	0	7
SI_	21	0	7	96	288	4
STR	23	0	3
SI_	23	0	3	96	288	0
STR	25	0	4
SI_	25	0	4	96	288	7
TAP	27	0	0
TAP	27	0	7
TAP	27	192	0
TAP	27	192	7
TAP	28	0	0
TAP	28	0	7
BRK	29	0	7
TAP	29	96	7
TAP	29	192	7
TAP	30	0	6
TAP	30	96	6
TAP	30	192	6
TAP	31	0	5
TAP	31	96	5
TAP	31	192	5
TAP	32	0	4
TAP	32	96	3
TAP	32	192	4
TAP	33	0	3
TAP	33	96	3
TAP	33	192	3
TAP	34	0	2
TAP	34	96	2
TAP	34	192	2
TAP	35	0	1
TAP	35	96	1
TAP	35	192	1
TAP	36	0	0
TAP	36	96	0
TAP	36	192	0
BRK	37	0	7
TAP	37	96	7
TAP	37	192	0
TAP	37	288	0
TAP	38	0	1
TAP	38	96	1
TAP	38	192	0
TAP	38	192	1
TAP	39	0	2
TAP	39	96	2
TAP	39	192	3
TAP	39	288	3
TAP	40	0	4
TAP	40	96	4
TAP	40	192	3
TAP	40	192	4
TAP	41	0	5
TAP	41	96	5
TAP	41	192	6
TAP	41	288	6
TAP	42	0	7
TAP	42	96	7
TAP	42	192	0
TAP	42	192	7
HLD	43	0	0	384
HLD	43	0	7	384
BRK	45	0	1
TAP	45	96	1
TAP	45	192	0
TAP	45	288	0
TAP	46	0	6
TAP	46	0	7
TAP	46	96	6
TAP	46	96	7
TAP	46	192	6
TAP	46	192	7
TAP	47	0	6
TAP	47	96	6
TAP	47	192	5
TAP	47	288	5
TAP	48	0	3
TAP	48	0	4
TAP	48	96	3
TAP	48	96	4
TAP	48	192	3
TAP	48	192	4
TAP	49	0	3
TAP	49	96	3
TAP	49	192	2
TAP	49	288	2
TAP	50	0	0
TAP	50	0	1
TAP	50	96	0
TAP	50	96	1
TAP	50	192	0
TAP	50	192	1
TAP	51	0	7
TAP	51	96	7
TAP	51	192	7
HLD	52	0	7	768
HLD	53	0	0	384
BRK	56	0	0
TAP	56	96	0
TAP	56	192	0
TAP	57	0	1
TAP	57	96	1
TAP	57	192	1
TAP	58	0	2
TAP	58	96	2
TAP	58	192	2
TAP	59	0	3
TAP	59	0	4
TAP	59	192	3
TAP	59	192	4
TAP	60	0	4
TAP	60	96	4
TAP	60	192	4
TAP	61	0	5
TAP	61	96	5
TAP	61	192	5
TAP	62	0	6
TAP	62	96	6
TAP	62	192	6
TAP	63	0	0
TAP	63	0	7
TAP	63	192	0
TAP	63	192	7
TAP	64	0	1
TAP	64	0	6

T_REC_TAP	157
T_REC_BRK	4
T_REC_XTP	0
T_REC_HLD	4
T_REC_XHO	0
T_REC_STR	4
T_REC_BST	0
T_REC_XST	0
T_REC_TTP	0
T_REC_THO	0
T_REC_SLD	4
T_REC_ALL	173
T_NUM_TAP	161
T_NUM_BRK	4
T_NUM_HLD	4
T_NUM_SLD	4
T_NUM_ALL	173
T_JUDGE_TAP	165
T_JUDGE_HLD	40
T_JUDGE_SLD	4
T_JUDGE_ALL	209
TTM_EACHPAIRS	24
TTM_SCR_TAP	80500
TTM_SCR_BRK	10400
TTM_SCR_HLD	4000
TTM_SCR_SLD	6000
TTM_SCR_ALL	100900
TTM_SCR_S	97500
TTM_SCR_SS	100500
TTM_RAT_ACV	10039

