VERSION	0.00.00	1.03.00
FES_MODE	0
BPM_DEF	150.000	150.000	150.000	150.000
MET_DEF	4	4
RESOLUTION	384
CLK_DEF	384
COMPATIBLE_CODE	MA2

BPM	0	0	150.000
MET	0	0	4	4

STR	1	0	0
SI_	1	0	0	96	96	2
STR	1	0	7
SI_	1	0	7	96	96	5
STR	2	0	4
SCL	2	0	4	96	96	1
HLD	2	0	6	192
STR	3	0	6
SI_	3	0	6	96	48	1
HLD	3	0	7	96
STR	3	192	0
SUR	3	192	0	96	48	4
HLD	4	0	2	96
STR	4	0	7
SLL	4	0	7	96	144	2
HLD	5	0	2	0
HLD	5	0	5	0
HLD	5	96	3	0
HLD	5	96	4	0
STR	5	192	1
SI_	5	192	1	96	48	3
STR	5	192	5
SI_	5	192	5	96	48	3
STR	6	0	1
SI_	6	0	1	96	48	4
STR	6	0	6
SI_	6	0	6	96	48	4
HLD	6	192	1	0
HLD	6	192	6	0
HLD	6	288	3	0
HLD	6	288	4	0
STR	7	0	1
SI_	7	0	1	96	48	3
STR	7	0	6
SI_	7	0	6	96	48	3
STR	7	192	1
SI_	7	192	1	96	48	4
STR	7	192	7
SI_	7	192	7	96	48	4
STR	8	0	0
SI_	8	0	0	96	48	3
STR	8	0	6
SI_	8	0	6	96	48	3
HLD	8	192	1	0
HLD	8	192	6	0
HLD	8	288	0	0
HLD	8	288	7	0
STR	9	0	1
SV_	9	0	1	96	48	3
HLD	9	96	4	0
STR	9	192	6
SV_	9	192	6	96	48	4
STR	9	288	1
SV_	9	288	1	96	48	3
STR	10	0	7
SV_	10	0	7	96	48	5
STR	10	96	0
SV_	10	96	0	96	48	2
HLD	10	192	7	0
HLD	10	288	0	0
HLD	11	0	0	48
HLD	11	0	6	48
HLD	11	96	2	48
HLD	11	96	4	48
HLD	11	192	1	48
HLD	11	192	7	48
HLD	11	288	3	48
HLD	11	288	5	48
HLD	12	0	2	96
HLD	12	0	6	96
HLD	12	192	1	0
HLD	12	240	5	0
STR	12	336	0
SV_	12	336	0	96	192	7
STR	12	336	4
SV_	12	336	4	96	192	3
HLD	14	0	2	0
HLD	14	0	3	0
HLD	14	96	1	0
HLD	14	96	4	0
HLD	14	192	2	0
HLD	14	240	3	0
HLD	14	288	1	0
HLD	14	288	4	0
HLD	15	0	4	0
HLD	15	0	5	0
HLD	15	96	3	0
HLD	15	96	6	0
HLD	15	192	5	0
HLD	15	240	4	0
HLD	15	288	3	0
HLD	15	288	6	0
HLD	16	0	3	0
HLD	16	0	4	0
HLD	16	96	2	0
HLD	16	96	5	0
HLD	16	192	3	0
HLD	16	240	4	0
BRK	16	288	1
BRK	16	288	6
STR	17	0	5
SV_	17	0	5	96	96	4
HLD	17	96	4	0
HLD	17	192	3	96
HLD	17	288	4	0
HLD	18	0	6	96
HLD	18	96	4	0
HLD	18	192	2	96
HLD	18	288	4	0
STR	19	0	5
SV_	19	0	5	96	96	7
HLD	19	96	4	0
STR	19	192	4
SI_	19	192	4	96	72	2
HLD	19	288	5	0
STR	20	0	5
SLR	20	0	5	96	96	1
STR	20	96	1
SLR	20	96	1	96	96	5
HLD	20	192	5	0
HLD	20	288	1	0
STR	21	0	1
SLR	21	0	1	96	96	0
HLD	21	96	4	0
HLD	21	192	6	96
HLD	21	288	4	0
HLD	22	0	1	96
HLD	22	96	4	0
HLD	22	192	7	96
HLD	22	288	4	0
STR	23	0	0
SLR	23	0	0	96	120	4
STR	23	0	7
SLL	23	0	7	96	120	3
STR	24	0	4
SLL	24	0	4	96	96	0
STR	24	0	5
SI_	24	0	5	96	48	2
BRK	24	288	1
BRK	24	288	6
STR	25	0	2
SV_	25	0	2	96	96	3
HLD	25	96	3	0
HLD	25	192	4	96
HLD	25	288	3	0
STR	26	0	1
SV_	26	0	1	96	144	3
SLL	26	0	1	96	144	5
STR	27	0	2
SV_	27	0	2	96	96	0
HLD	27	96	3	0
HLD	27	192	4	0
HLD	27	288	3	0
STR	28	0	3
SI_	28	0	3	96	96	6
STR	28	0	4
SI_	28	0	4	96	96	1
BRK	28	288	0
BRK	28	288	7
STR	29	0	6
SLL	29	0	6	96	96	2
HLD	29	96	3	0
STR	29	192	1
SLR	29	192	1	96	96	5
HLD	29	288	4	0
STR	30	0	6
SLL	30	0	6	96	96	0
HLD	30	96	2	0
STR	30	192	1
SLR	30	192	1	96	96	7
HLD	30	288	5	0
STR	31	0	0
SLL	31	0	0	96	144	4
SLR	31	0	0	96	144	4
STR	32	0	7
SCL	32	0	7	96	192	0
SV_	32	0	7	96	192	0
HLD	33	0	2	0
STR	33	0	3
SI_	33	0	3	96	72	6
HLD	33	144	7	0
HLD	33	192	7	0
HLD	33	288	0	0
HLD	33	288	5	0
STR	34	0	4
SI_	34	0	4	96	72	1
HLD	34	0	5	0
HLD	34	144	0	0
HLD	34	192	0	0
HLD	34	288	2	0
HLD	34	288	7	0
HLD	35	0	2	0
STR	35	0	3
SLR	35	0	3	96	96	7
HLD	35	144	0	0
HLD	35	192	0	0
HLD	35	288	1	0
HLD	35	288	6	0
STR	36	0	4
SLL	36	0	4	96	96	0
HLD	36	0	5	0
HLD	36	144	7	0
HLD	36	192	7	0
HLD	36	288	1	0
HLD	36	288	6	0
STR	37	0	0
SI_	37	0	0	96	48	3
HLD	37	0	4	96
STR	37	192	0
SI_	37	192	0	96	48	3
HLD	37	192	4	96
STR	38	0	0
SI_	38	0	0	96	48	3
HLD	38	0	4	96
STR	38	192	0
SI_	38	192	0	96	48	3
HLD	38	192	4	96
STR	39	0	2
SI_	39	0	2	96	48	0
HLD	39	0	4	96
STR	39	192	3
SI_	39	192	3	96	48	1
SI_	39	192	3	96	48	7
STR	40	0	4
SI_	40	0	4	96	48	0
SI_	40	0	4	96	48	6
STR	40	192	3
SI_	40	192	3	96	48	5
SV_	40	192	3	96	48	1
STR	41	0	0
SF_	41	0	0	96	168	4
STR	42	0	2
SV_	42	0	2	96	96	4
STR	42	0	6
SV_	42	0	6	96	96	4
BRK	42	288	0
BRK	42	288	1
STR	43	0	1
SV_	43	0	1	96	96	3
STR	43	0	5
SV_	43	0	5	96	96	3
BRK	43	288	6
BRK	43	288	7
STR	44	0	1
SV_	44	0	1	96	96	7
STR	44	0	5
SV_	44	0	5	96	96	7
HLD	44	288	2	0
HLD	44	288	3	0
STR	45	0	2
SV_	45	0	2	96	96	0
STR	45	0	6
SV_	45	0	6	96	96	0
HLD	45	288	4	0
HLD	45	288	5	0
STR	46	0	7
SI_	46	0	7	96	48	2
STR	46	96	0
SI_	46	96	0	96	48	5
STR	46	192	6
SI_	46	192	6	96	48	3
STR	46	288	1
SI_	46	288	1	96	48	4
STR	47	0	5
SLR	47	0	5	96	96	1
HLD	47	96	2	0
HLD	47	288	1	0
HLD	47	288	6	0
HLD	48	0	7	96
HLD	48	96	5	96
HLD	48	192	3	96
HLD	48	288	1	96
HLD	49	0	6	0
HLD	49	48	7	0
HLD	49	96	5	0
HLD	49	144	0	0
HLD	49	288	0	0
HLD	49	288	7	0
STR	50	0	1
SI_	50	0	1	96	48	3
STR	50	0	5
SI_	50	0	5	96	48	3
STR	50	192	2
SI_	50	192	2	96	48	4
STR	50	192	6
SI_	50	192	6	96	48	4
STR	51	0	1
SI_	51	0	1	96	48	3
STR	51	0	6
SI_	51	0	6	96	48	3
STR	51	192	1
SI_	51	192	1	96	48	4
STR	51	192	6
SI_	51	192	6	96	48	4
STR	52	0	0
SI_	52	0	0	96	48	3
STR	52	0	6
SI_	52	0	6	96	48	3
STR	52	192	1
SI_	52	192	1	96	48	4
STR	52	192	7
SI_	52	192	7	96	48	4
STR	53	0	0
SI_	53	0	0	96	48	2
STR	53	0	7
SI_	53	0	7	96	48	2
STR	53	192	0
SI_	53	192	0	96	48	5
STR	53	192	7
SI_	53	192	7	96	48	5
STR	54	0	1
SV_	54	0	1	96	48	3
HLD	54	96	4	0
STR	54	192	6
SV_	54	192	6	96	48	4
STR	54	288	1
SV_	54	288	1	96	48	3
STR	55	0	7
SV_	55	0	7	96	48	5
STR	55	96	0
SV_	55	96	0	96	48	2
HLD	55	192	7	0
HLD	55	288	0	0
STR	56	0	0
SV_	56	0	0	96	96	2
SV_	56	0	0	96	96	6
BRK	56	96	0
HLD	57	0	0	96
HLD	57	0	7	96
HLD	57	192	1	0
HLD	57	240	0	0
STR	57	336	1
SI_	57	336	1	96	96	6
STR	57	336	2
SI_	57	336	2	96	96	5
HLD	58	288	0	0
HLD	58	288	4	0
HLD	59	0	6	0
HLD	59	0	7	0
HLD	59	96	0	0
HLD	59	96	5	0
HLD	59	192	5	0
HLD	59	240	4	0
HLD	59	288	3	0
HLD	59	288	6	0
HLD	60	0	2	0
HLD	60	0	3	0
HLD	60	96	1	0
HLD	60	96	4	0
HLD	60	192	1	0
HLD	60	240	0	0
HLD	60	288	2	0
HLD	60	288	7	0
STR	61	0	0
SI_	61	0	0	96	48	5
STR	61	0	1
SUR	61	0	1	96	48	5
BRK	61	96	0
BRK	61	96	1
STR	61	192	0
SI_	61	192	0	96	48	5
STR	61	192	1
SUR	61	192	1	96	48	5
BRK	61	288	0
BRK	61	288	1
STR	62	0	0
SI_	62	0	0	96	48	5
STR	62	0	1
SUR	62	0	1	96	48	5
BRK	62	96	0
BRK	62	96	1
STR	62	192	0
SI_	62	192	0	96	48	5
STR	62	192	1
SUR	62	192	1	96	48	5
BRK	62	288	0
BRK	62	288	1
STR	63	0	0
SI_	63	0	0	96	48	5
STR	63	0	1
SUR	63	0	1	96	48	5
BRK	63	96	0
BRK	63	96	1
HLD	63	192	0	0
HLD	63	192	1	0
HLD	63	288	0	0
HLD	63	288	7	0
STR	64	0	6
SI_	64	0	6	96	48	3
STR	64	0	7
SI_	64	0	7	96	48	3
BRK	64	96	6
BRK	64	96	7
HLD	64	192	2	0
HLD	64	288	1	0
STR	65	0	0
SI_	65	0	0	96	48	4
STR	65	0	1
SI_	65	0	1	96	48	4
BRK	65	96	0
BRK	65	96	1
HLD	65	192	5	0
HLD	65	288	6	0
BST	66	0	6
SV_	66	0	6	96	288	4
BST	66	0	7
SLR	66	0	7	96	288	4

T_REC_TAP	0
T_REC_BRK	25
T_REC_XTP	0
T_REC_HLD	155
T_REC_XHO	0
T_REC_STR	108
T_REC_BST	2
T_REC_XST	0
T_REC_TTP	0
T_REC_THO	0
T_REC_SLD	117
T_REC_ALL	407
T_NUM_TAP	108
T_NUM_BRK	27
T_NUM_HLD	155
T_NUM_SLD	117
T_NUM_ALL	407
T_JUDGE_TAP	135
T_JUDGE_HLD	180
T_JUDGE_SLD	117
T_JUDGE_ALL	432
TTM_EACHPAIRS	92
TTM_SCR_TAP	54000
TTM_SCR_BRK	70200
TTM_SCR_HLD	155000
TTM_SCR_SLD	175500
TTM_SCR_ALL	454700
TTM_SCR_S	438450
TTM_SCR_SS	452000
TTM_RAT_ACV	10059

