VERSION	0.00.00	1.03.00
FES_MODE	0
BPM_DEF	150.000	150.000	150.000	150.000
MET_DEF	4	4
RESOLUTION	384
CLK_DEF	384
COMPATIBLE_CODE	MA2

BPM	0	0	150.000
MET	0	0	4	4

TAP	1	0	1
TAP	1	0	6
TAP	1	192	0
TAP	1	192	7
TAP	1	288	2
TAP	1	288	5
TAP	2	0	0
TAP	2	0	1
STR	2	96	2
SCL	2	96	2	96	96	7
STR	2	96	3
SCR	2	96	3	96	96	6
TAP	3	0	1
TAP	3	0	6
TAP	3	192	0
TAP	3	192	7
TAP	3	288	2
TAP	3	288	5
TAP	4	0	0
TAP	4	0	1
STR	4	96	2
SCL	4	96	2	96	96	7
STR	4	96	3
SCR	4	96	3	96	96	6
TAP	5	0	3
TAP	5	96	1
TAP	5	96	5
STR	5	192	0
SI_	5	192	0	96	48	3
STR	5	192	6
SI_	5	192	6	96	48	3
TAP	6	0	4
TAP	6	96	2
TAP	6	96	6
STR	6	192	1
SI_	6	192	1	96	48	4
STR	6	192	7
SI_	6	192	7	96	48	4
STR	7	0	1
SI_	7	0	1	96	48	4
STR	7	0	6
SI_	7	0	6	96	48	4
STR	7	192	1
SI_	7	192	1	96	48	3
STR	7	192	6
SI_	7	192	6	96	48	3
TAP	8	0	1
TAP	8	0	6
STR	8	96	0
SI_	8	96	0	96	96	3
STR	8	96	7
SUL	8	96	7	96	96	3
TAP	9	0	0
HLD	9	0	1	96
TAP	9	96	3
HLD	9	192	6	96
TAP	9	192	7
TAP	9	288	4
TAP	10	0	0
HLD	10	0	2	96
TAP	10	96	3
HLD	10	192	5	96
TAP	10	192	7
TAP	10	288	4
STR	11	0	0
SI_	11	0	0	96	48	3
STR	11	0	1
SI_	11	0	1	96	48	3
STR	11	192	6
SI_	11	192	6	96	48	4
STR	11	192	7
SI_	11	192	7	96	48	4
TAP	12	0	2
TAP	12	0	3
TAP	12	96	4
TAP	12	96	5
TAP	12	192	3
TAP	12	192	4
STR	12	240	3
SXR	12	240	3	96	240	0
STR	12	240	4
SXL	12	240	4	96	240	7
TAP	13	288	3
TAP	13	288	4
HLD	14	0	5	288
TAP	14	96	6
TAP	14	192	7
TAP	14	288	0
HLD	15	0	2	288
TAP	15	96	1
TAP	15	192	0
TAP	15	288	7
TAP	16	0	4
TAP	16	0	6
TAP	16	96	1
TAP	16	96	3
TAP	16	192	3
TAP	16	192	4
TAP	16	288	1
TAP	16	288	6
TAP	17	0	4
HLD	17	0	5	288
TAP	17	96	3
TAP	17	192	4
TAP	17	288	0
HLD	18	0	2	288
TAP	18	0	3
TAP	18	96	4
TAP	18	192	3
TAP	18	288	7
TAP	19	0	4
HLD	19	0	5	288
TAP	19	96	3
TAP	19	192	4
STR	19	288	0
SXR	19	288	0	96	192	2
TAP	20	288	3
TAP	20	288	4
HLD	21	0	2	288
TAP	21	0	3
TAP	21	96	4
TAP	21	192	3
TAP	21	288	7
TAP	22	0	4
HLD	22	0	5	288
TAP	22	96	3
TAP	22	192	4
TAP	22	288	0
HLD	23	0	2	288
TAP	23	0	3
TAP	23	96	4
TAP	23	192	3
STR	23	288	5
SCR	23	288	5	96	192	2
TAP	24	288	3
TAP	24	288	4
TAP	25	0	0
HLD	25	0	1	288
TAP	25	96	7
TAP	25	192	0
TAP	25	288	4
HLD	26	0	6	288
TAP	26	0	7
TAP	26	96	0
TAP	26	192	7
TAP	26	288	3
TAP	27	0	0
HLD	27	0	1	288
TAP	27	96	7
TAP	27	192	0
STR	27	288	4
SXR	27	288	4	96	192	6
TAP	28	288	0
TAP	28	288	7
HLD	29	0	6	288
TAP	29	0	7
TAP	29	96	0
TAP	29	192	7
TAP	29	288	3
TAP	30	0	0
HLD	30	0	1	288
TAP	30	96	7
TAP	30	192	0
TAP	30	288	4
TAP	31	0	2
TAP	31	0	3
TAP	31	96	4
TAP	31	96	5
TAP	31	192	0
TAP	31	192	7
STR	31	240	0
SCR	31	240	0	96	240	7
TAP	31	240	7
TAP	32	288	3
TAP	32	288	4
HLD	33	0	5	192
TAP	33	144	4
TAP	33	192	4
TAP	33	288	3
TAP	33	288	6
HLD	34	0	2	192
TAP	34	144	3
TAP	34	192	3
TAP	34	288	1
TAP	34	288	4
HLD	35	0	5	192
TAP	35	144	4
TAP	35	192	4
TAP	35	288	3
STR	35	288	7
SF_	35	288	7	96	192	3
TAP	36	288	3
TAP	36	288	4
HLD	37	0	2	192
TAP	37	144	3
TAP	37	192	3
TAP	37	288	1
TAP	37	288	4
HLD	38	0	5	192
TAP	38	144	4
TAP	38	192	4
STR	38	288	3
SF_	38	288	3	96	192	7
TAP	38	288	7
TAP	40	0	3
TAP	40	0	4
TAP	40	48	3
TAP	40	48	4
TAP	40	96	2
TAP	40	96	5
TAP	40	144	2
TAP	40	144	5
TAP	40	192	1
TAP	40	192	6
TAP	40	240	1
TAP	40	240	6
TAP	40	288	0
TAP	40	288	7
TAP	40	336	0
TAP	40	336	7
TAP	41	240	3
TAP	41	240	4
TAP	41	288	3
TAP	41	288	4
TAP	42	0	4
STR	42	0	5
SI_	42	0	5	96	48	0
STR	42	192	2
SI_	42	192	2	96	48	7
TAP	42	192	3
TAP	43	0	4
STR	43	0	5
SI_	43	0	5	96	48	0
TAP	43	192	2
TAP	43	192	3
TAP	43	288	1
TAP	43	288	4
HLD	44	0	0	96
HLD	44	96	2	96
HLD	44	192	4	96
STR	44	288	6
SXL	44	288	6	96	192	1
BRK	45	240	0
BRK	45	288	0
TAP	46	0	2
TAP	46	0	3
TAP	46	96	1
TAP	46	96	4
TAP	46	192	4
TAP	46	192	5
TAP	46	288	3
TAP	46	288	6
STR	47	0	1
SCL	47	0	1	96	96	6
STR	47	0	5
SUR	47	0	5	96	96	2
TAP	47	288	3
TAP	47	288	4
HLD	48	0	5	96
HLD	48	96	7	96
HLD	48	192	0	96
TAP	48	288	2
TAP	49	0	7
TAP	49	48	7
TAP	49	96	0
STR	49	144	0
SI_	49	144	0	96	48	4
STR	49	144	7
SI_	49	144	7	96	48	3
STR	50	0	2
SCL	50	0	2	96	48	7
TAP	50	0	6
TAP	50	192	1
STR	50	192	5
SCR	50	192	5	96	48	0
STR	51	0	2
SCL	51	0	2	96	48	7
TAP	51	0	6
TAP	51	192	4
TAP	51	192	5
TAP	51	288	3
TAP	51	288	6
TAP	52	0	6
TAP	52	0	7
TAP	52	96	2
TAP	52	96	4
TAP	52	192	0
TAP	52	192	1
TAP	52	288	3
TAP	52	288	5
STR	53	0	2
SI_	53	0	2	96	96	5
STR	53	0	6
SI_	53	0	6	96	96	1
BRK	53	288	0
BRK	53	288	7
TAP	54	0	3
TAP	54	0	5
TAP	54	96	2
TAP	54	96	4
TAP	54	192	3
TAP	54	192	6
TAP	54	288	1
TAP	54	288	4
STR	55	0	4
SCL	55	0	4	96	96	1
STR	55	0	5
SCR	55	0	5	96	96	0
TAP	55	288	2
TAP	55	288	3
STR	56	0	3
SI_	56	0	3	96	48	0
STR	56	0	4
SI_	56	0	4	96	48	7
TAP	56	288	3
TAP	56	288	4
TAP	57	0	4
TAP	57	0	6
TAP	57	96	3
TAP	57	96	4
TAP	57	192	1
TAP	57	192	3
STR	57	288	1
SI_	57	288	1	96	192	6
STR	57	288	2
SI_	57	288	2	96	192	5
TAP	58	288	5
TAP	58	288	6
HLD	59	0	1	192
TAP	59	96	0
HLD	59	192	6	192
TAP	59	288	7
HLD	60	0	4	96
TAP	60	96	3
TAP	60	192	2
TAP	60	192	5
TAP	60	288	0
TAP	60	288	7
TAP	60	336	0
TAP	60	336	7
TAP	61	48	3
TAP	61	48	4
TAP	61	144	1
TAP	61	144	7
STR	61	192	1
SUR	61	192	1	96	96	5
STR	61	192	7
SXR	61	192	7	96	96	5
TAP	62	96	3
TAP	62	96	4
TAP	62	192	1
TAP	62	192	3
TAP	62	288	4
TAP	62	288	6
HLD	63	0	0	96
HLD	63	96	6	96
HLD	63	192	4	96
STR	63	288	2
SXL	63	288	2	96	192	5
TAP	64	288	3
TAP	64	288	4
TAP	65	0	5
TAP	65	48	5
TAP	65	96	2
TAP	65	144	2
TAP	65	192	4
TAP	65	240	4
TAP	65	288	3
BRK	66	0	1
BST	66	0	6
SI_	66	0	6	96	576	2

T_REC_TAP	234
T_REC_BRK	5
T_REC_XTP	0
T_REC_HLD	34
T_REC_XHO	0
T_REC_STR	48
T_REC_BST	1
T_REC_XST	0
T_REC_TTP	0
T_REC_THO	0
T_REC_SLD	49
T_REC_ALL	371
T_NUM_TAP	282
T_NUM_BRK	6
T_NUM_HLD	34
T_NUM_SLD	49
T_NUM_ALL	371
T_JUDGE_TAP	288
T_JUDGE_HLD	134
T_JUDGE_SLD	49
T_JUDGE_ALL	471
TTM_EACHPAIRS	115
TTM_SCR_TAP	141000
TTM_SCR_BRK	15600
TTM_SCR_HLD	34000
TTM_SCR_SLD	73500
TTM_SCR_ALL	264100
TTM_SCR_S	255600
TTM_SCR_SS	263500
TTM_RAT_ACV	10022

