VERSION	0.00.00	1.03.00
FES_MODE	0
BPM_DEF	150.000	150.000	150.000	150.000
MET_DEF	4	4
RESOLUTION	384
CLK_DEF	384
COMPATIBLE_CODE	MA2

BPM	0	0	150.000
MET	0	0	4	4

TAP	1	0	0
TAP	1	0	1
TAP	1	192	6
TAP	1	288	6
TAP	1	288	7
TAP	2	0	1
TAP	2	96	0
TAP	2	96	1
TAP	2	192	0
TAP	2	192	7
TAP	3	0	6
TAP	3	0	7
TAP	3	192	1
TAP	3	288	0
TAP	3	288	1
TAP	4	0	6
TAP	4	96	6
TAP	4	96	7
TAP	4	192	0
TAP	4	192	7
HLD	5	0	2	96
TAP	5	96	3
TAP	5	192	1
TAP	5	192	4
HLD	6	0	5	96
TAP	6	96	4
TAP	6	192	3
TAP	6	192	6
HLD	7	0	2	96
TAP	7	96	3
HLD	7	192	5	96
TAP	7	288	4
STR	8	0	2
SI_	8	0	2	96	144	6
STR	8	0	3
SI_	8	0	3	96	144	7
HLD	9	0	1	96
TAP	9	96	0
HLD	9	192	6	96
TAP	9	288	7
HLD	10	0	0	96
TAP	10	96	7
TAP	10	192	0
TAP	10	288	0
TAP	10	288	7
STR	11	0	1
SI_	11	0	1	96	144	4
STR	11	0	6
SI_	11	0	6	96	144	3
HLD	12	0	2	192
HLD	12	0	5	192
TAP	13	0	2
TAP	13	96	2
TAP	13	192	2
TAP	13	192	3
TAP	14	0	5
TAP	14	96	5
TAP	14	192	4
TAP	14	192	5
TAP	15	0	2
TAP	15	96	2
TAP	15	96	3
TAP	15	192	5
TAP	15	288	4
TAP	15	288	5
TAP	16	0	3
TAP	16	0	4
TAP	16	96	3
TAP	16	96	4
BRK	16	192	2
BRK	16	192	5
TAP	17	0	0
TAP	17	96	0
TAP	17	192	1
TAP	18	0	7
TAP	18	96	7
TAP	18	192	6
HLD	19	0	0	96
HLD	19	0	1	96
TAP	19	192	2
TAP	19	192	7
TAP	20	0	6
TAP	20	0	7
TAP	20	96	6
TAP	20	96	7
TAP	20	192	0
TAP	20	192	5
TAP	21	0	7
TAP	21	96	7
TAP	21	192	6
TAP	22	0	0
TAP	22	96	0
TAP	22	192	1
TAP	23	0	6
TAP	23	96	7
TAP	23	192	1
TAP	23	288	0
STR	24	0	0
SI_	24	0	0	96	144	3
STR	24	0	7
SI_	24	0	7	96	144	4
TAP	25	0	4
TAP	25	96	4
TAP	25	192	5
TAP	26	0	3
TAP	26	96	3
TAP	26	192	2
HLD	27	0	4	96
HLD	27	0	5	96
TAP	27	192	3
TAP	27	192	6
STR	28	0	2
SXR	28	0	2	96	144	0
STR	28	0	3
SXL	28	0	3	96	144	5
TAP	29	0	7
TAP	29	96	7
TAP	29	192	6
TAP	30	0	0
TAP	30	96	0
TAP	30	192	1
TAP	31	0	6
TAP	31	96	7
TAP	31	192	1
TAP	31	288	0
STR	32	0	0
SCR	32	0	0	96	144	3
STR	32	0	7
SCL	32	0	7	96	144	4
STR	33	0	2
SI_	33	0	2	96	144	5
TAP	33	0	3
TAP	34	0	4
STR	34	0	5
SI_	34	0	5	96	144	2
STR	35	0	2
SXR	35	0	2	96	384	7
STR	35	0	3
SXL	35	0	3	96	384	6
STR	37	0	0
SI_	37	0	0	96	144	3
TAP	37	0	7
HLD	38	0	3	192
HLD	38	0	4	192
STR	39	0	3
SI_	39	0	3	96	144	0
TAP	39	0	4
STR	40	0	7
SF_	40	0	7	96	384	3
HLD	42	0	5	96
TAP	42	96	4
TAP	42	192	3
TAP	42	192	6
HLD	43	0	2	96
TAP	43	96	3
TAP	43	192	1
TAP	43	192	4
HLD	44	0	5	96
TAP	44	96	4
HLD	44	192	2	96
TAP	44	288	3
STR	45	0	4
SI_	45	0	4	96	144	1
STR	45	0	5
SI_	45	0	5	96	144	0
HLD	46	0	6	96
TAP	46	96	7
HLD	46	192	1	96
TAP	46	288	0
HLD	47	0	7	96
TAP	47	96	0
TAP	47	192	1
TAP	47	192	6
HLD	48	0	1	96
TAP	48	96	0
HLD	48	192	6	96
TAP	48	288	7
TAP	49	0	0
TAP	49	0	7
TAP	49	96	1
TAP	49	96	6
BRK	49	192	2
BRK	49	192	5
HLD	50	0	5	96
TAP	50	96	3
TAP	50	192	2
TAP	50	192	6
HLD	51	0	2	96
TAP	51	96	4
TAP	51	192	1
TAP	51	192	5
HLD	52	0	5	96
TAP	52	96	3
HLD	52	192	2	96
TAP	52	288	4
STR	53	0	3
SI_	53	0	3	96	144	7
STR	53	0	5
SI_	53	0	5	96	144	1
HLD	54	0	6	96
TAP	54	96	7
HLD	54	192	1	96
TAP	54	288	0
HLD	55	0	7	96
TAP	55	96	0
TAP	55	192	7
STR	55	288	0
SXL	55	288	0	96	264	1
STR	55	288	7
SXR	55	288	7	96	264	6
STR	57	0	0
SI_	57	0	0	96	144	3
STR	57	0	7
SI_	57	0	7	96	144	4
TAP	58	0	5
TAP	58	96	5
TAP	58	192	4
TAP	58	192	5
TAP	59	0	2
TAP	59	96	2
TAP	59	192	2
TAP	59	192	3
TAP	60	0	6
TAP	60	96	6
TAP	60	192	6
TAP	60	192	7
TAP	61	0	1
TAP	61	96	1
TAP	61	192	0
TAP	61	192	1
TAP	62	0	6
TAP	62	0	7
TAP	62	96	6
TAP	62	96	7
TAP	62	192	0
TAP	62	192	1
STR	62	288	0
SI_	62	288	0	96	192	5
STR	62	288	1
SI_	62	288	1	96	192	5
STR	64	0	6
SI_	64	0	6	96	144	3
STR	64	0	7
SI_	64	0	7	96	144	2
STR	65	0	4
SI_	65	0	4	96	144	1
STR	65	0	5
SI_	65	0	5	96	144	0
BRK	66	0	0
BRK	66	0	7

T_REC_TAP	151
T_REC_BRK	6
T_REC_XTP	0
T_REC_HLD	31
T_REC_XHO	0
T_REC_STR	31
T_REC_BST	0
T_REC_XST	0
T_REC_TTP	0
T_REC_THO	0
T_REC_SLD	31
T_REC_ALL	250
T_NUM_TAP	182
T_NUM_BRK	6
T_NUM_HLD	31
T_NUM_SLD	31
T_NUM_ALL	250
T_JUDGE_TAP	188
T_JUDGE_HLD	70
T_JUDGE_SLD	31
T_JUDGE_ALL	289
TTM_EACHPAIRS	60
TTM_SCR_TAP	91000
TTM_SCR_BRK	15600
TTM_SCR_HLD	31000
TTM_SCR_SLD	46500
TTM_SCR_ALL	184100
TTM_SCR_S	178000
TTM_SCR_SS	183500
TTM_RAT_ACV	10032

