VERSION	0.00.00	1.03.00
FES_MODE	0
BPM_DEF	150.000	150.000	150.000	150.000
MET_DEF	4	4
RESOLUTION	384
CLK_DEF	384
COMPATIBLE_CODE	MA2

BPM	0	0	150.000
MET	0	0	4	4

TAP	5	0	0
TAP	5	192	0
TAP	6	0	1
TAP	6	96	1
TAP	6	192	1
TAP	7	0	2
TAP	7	192	2
TAP	8	0	3
TAP	8	96	3
TAP	8	192	3
TAP	8	192	4
TAP	9	0	4
TAP	9	192	4
TAP	10	0	5
TAP	10	96	5
TAP	10	192	5
TAP	11	0	6
TAP	11	192	6
TAP	12	0	7
TAP	12	96	7
TAP	12	192	0
TAP	12	192	7
STR	13	0	0
SI_	13	0	0	96	288	4
STR	15	0	7
SI_	15	0	7	96	288	3
TAP	17	0	0
TAP	17	192	0
TAP	18	0	7
TAP	18	192	7
TAP	19	0	6
TAP	19	192	6
TAP	20	0	5
TAP	20	96	4
TAP	20	192	5
TAP	21	0	4
TAP	21	192	4
TAP	22	0	3
TAP	22	192	3
TAP	23	0	2
TAP	23	192	2
TAP	24	0	1
TAP	24	96	0
TAP	24	192	1
TAP	25	0	7
TAP	25	192	7
TAP	26	0	0
TAP	26	192	0
TAP	27	0	1
TAP	27	192	1
TAP	28	0	2
TAP	28	96	3
TAP	28	192	2
TAP	29	0	3
TAP	29	192	3
TAP	30	0	4
TAP	30	192	4
TAP	31	0	5
TAP	31	192	5
TAP	32	0	6
TAP	32	96	7
TAP	32	192	6
STR	33	0	0
SI_	33	0	0	96	288	3
STR	35	0	7
SI_	35	0	7	96	288	4
STR	37	0	0
SI_	37	0	0	96	288	5
STR	39	0	7
SI_	39	0	7	96	288	2
BRK	41	0	0
BRK	41	0	7
TAP	42	0	1
TAP	42	96	1
TAP	42	192	1
TAP	43	0	2
TAP	43	96	2
TAP	43	192	2
TAP	44	0	3
TAP	44	96	3
TAP	44	192	3
TAP	45	0	4
TAP	45	96	4
TAP	45	192	3
TAP	45	192	4
TAP	46	0	5
TAP	46	96	5
TAP	46	192	5
TAP	47	0	6
TAP	47	96	6
TAP	47	192	6
TAP	48	0	7
TAP	48	96	7
TAP	48	192	7
TAP	49	0	0
TAP	49	96	0
TAP	49	192	0
TAP	49	192	7
TAP	50	0	6
TAP	50	96	6
TAP	50	192	6
TAP	51	0	5
TAP	51	96	5
TAP	51	192	5
TAP	52	0	4
TAP	52	96	4
TAP	52	192	4
TAP	53	0	3
TAP	53	96	3
TAP	53	192	3
TAP	53	192	4
TAP	54	0	2
TAP	54	96	2
TAP	54	192	2
TAP	55	0	1
TAP	55	96	1
TAP	55	192	1
TAP	56	0	0
TAP	56	96	0
TAP	56	192	0
TAP	57	0	7
TAP	57	96	7
TAP	57	192	0
TAP	57	192	7
HLD	58	0	6	192
HLD	58	0	7	192
HLD	59	0	4	192
HLD	59	0	5	192
HLD	60	0	2	192
HLD	60	0	3	192
HLD	61	0	0	192
HLD	61	0	1	192
HLD	62	0	6	192
HLD	62	0	7	192
HLD	63	0	0	192
HLD	63	0	1	192
HLD	64	0	2	192
HLD	64	0	3	192
HLD	65	0	4	192
HLD	65	0	5	192
STR	66	0	6
SI_	66	0	6	96	288	1

T_REC_TAP	110
T_REC_BRK	2
T_REC_XTP	0
T_REC_HLD	16
T_REC_XHO	0
T_REC_STR	7
T_REC_BST	0
T_REC_XST	0
T_REC_TTP	0
T_REC_THO	0
T_REC_SLD	7
T_REC_ALL	142
T_NUM_TAP	117
T_NUM_BRK	2
T_NUM_HLD	16
T_NUM_SLD	7
T_NUM_ALL	142
T_JUDGE_TAP	119
T_JUDGE_HLD	64
T_JUDGE_SLD	7
T_JUDGE_ALL	190
TTM_EACHPAIRS	15
TTM_SCR_TAP	58500
TTM_SCR_BRK	5200
TTM_SCR_HLD	16000
TTM_SCR_SLD	10500
TTM_SCR_ALL	90200
TTM_SCR_S	87300
TTM_SCR_SS	90000
TTM_RAT_ACV	10022

