VERSION	0.00.00	1.03.00
FES_MODE	0
BPM_DEF	156.000	156.000	156.000	156.000
MET_DEF	4	4
RESOLUTION	384
CLK_DEF	384
COMPATIBLE_CODE	MA2

BPM	0	0	156.000
MET	0	0	4	4

TAP	1	0	2
TAP	1	24	1
TAP	1	24	3
TAP	1	72	5
TAP	1	96	4
TAP	1	96	6
TAP	1	144	0
STR	1	144	7
SI_	1	144	7	96	48	3
TAP	1	240	3
TAP	1	240	7
TAP	1	288	2
TAP	1	336	1
TAP	2	0	0
TAP	2	0	7
TAP	2	48	3
TAP	2	72	4
TAP	2	96	3
STR	2	144	1
SI_	2	144	1	96	48	3
TAP	2	144	6
BRK	2	240	1
TAP	2	240	5
TAP	2	288	6
TAP	2	336	7
TAP	3	0	5
TAP	3	24	4
TAP	3	24	6
TAP	3	72	2
TAP	3	96	1
TAP	3	96	3
STR	3	144	0
SI_	3	144	0	96	48	4
TAP	3	144	7
TAP	3	240	0
TAP	3	240	4
TAP	3	288	5
TAP	3	336	6
HLD	4	0	0	96
TAP	4	0	7
TAP	4	48	2
HLD	4	96	7	96
TAP	4	144	5
HLD	4	192	1	96
TAP	4	240	3
TAP	4	288	7
TAP	4	336	3
TAP	5	0	2
TAP	5	24	1
TAP	5	24	3
TAP	5	72	5
TAP	5	96	4
TAP	5	96	6
TAP	5	144	0
STR	5	144	7
SI_	5	144	7	96	48	3
TAP	5	240	3
TAP	5	240	7
TAP	5	288	2
TAP	5	336	1
TAP	6	0	5
TAP	6	24	4
TAP	6	24	6
TAP	6	72	2
TAP	6	96	1
TAP	6	96	3
STR	6	144	0
SI_	6	144	0	96	48	4
TAP	6	144	7
TAP	6	240	0
TAP	6	240	4
TAP	6	288	5
TAP	6	336	6
TAP	7	0	0
TAP	7	24	7
TAP	7	48	0
TAP	7	72	7
TAP	7	96	0
TAP	7	120	7
TAP	7	144	0
TAP	7	168	7
TAP	7	192	0
TAP	7	200	1
TAP	7	208	2
TAP	7	216	3
TAP	7	224	4
TAP	7	232	5
TAP	7	240	6
TAP	7	248	7
BRK	7	256	0
TAP	7	336	7
TAP	7	348	6
TAP	7	360	5
TAP	7	372	4
STR	8	0	3
SI_	8	0	3	96	48	7
TAP	8	48	2
TAP	8	96	3
STR	8	96	4
SI_	8	96	4	96	48	0
TAP	8	144	5
STR	8	192	3
SI_	8	192	3	96	48	7
TAP	8	192	4
TAP	8	240	2
BRK	8	288	3
BRK	8	288	4
TAP	9	0	1
TAP	9	24	3
TAP	9	72	2
TAP	9	96	4
TAP	9	144	3
TAP	9	168	5
TAP	9	216	2
TAP	9	240	3
TAP	9	264	2
TAP	9	288	3
TAP	9	336	1
TAP	9	336	7
TAP	10	0	6
TAP	10	24	4
TAP	10	72	5
TAP	10	96	3
TAP	10	144	4
TAP	10	168	2
TAP	10	216	5
TAP	10	240	4
TAP	10	264	5
TAP	10	288	4
TAP	10	336	0
TAP	10	336	6
TAP	11	0	1
TAP	11	24	0
TAP	11	48	2
TAP	11	96	5
TAP	11	120	4
TAP	11	144	5
TAP	11	168	4
TAP	11	192	3
TAP	11	192	6
TAP	11	240	2
TAP	11	264	3
TAP	11	288	1
TAP	11	336	0
TAP	11	336	4
TAP	12	0	6
TAP	12	24	7
TAP	12	48	5
TAP	12	96	2
TAP	12	120	3
TAP	12	144	2
TAP	12	168	3
TAP	12	192	1
TAP	12	192	4
TAP	12	240	5
TAP	12	264	4
TAP	12	288	6
TAP	12	336	3
TAP	12	336	7
TAP	13	0	1
TAP	13	24	3
TAP	13	72	2
TAP	13	96	4
TAP	13	144	3
TAP	13	168	5
TAP	13	216	2
TAP	13	240	3
TAP	13	264	2
TAP	13	288	3
TAP	13	336	1
TAP	13	336	7
TAP	14	0	6
TAP	14	24	4
TAP	14	72	5
TAP	14	96	3
TAP	14	144	4
TAP	14	168	2
TAP	14	216	5
TAP	14	240	4
TAP	14	264	5
TAP	14	288	4
TAP	14	336	0
TAP	14	336	6
TAP	15	0	1
TAP	15	24	0
TAP	15	48	2
TAP	15	96	5
TAP	15	120	4
TAP	15	144	5
TAP	15	168	4
TAP	15	192	3
TAP	15	192	6
TAP	15	240	2
TAP	15	264	3
TAP	15	288	1
TAP	15	336	0
TAP	15	336	4
TAP	16	0	3
TAP	16	24	4
TAP	16	48	3
TAP	16	96	7
TAP	16	120	0
TAP	16	144	7
TAP	16	168	1
TAP	16	168	6
TAP	16	216	0
TAP	16	216	7
TAP	16	240	0
TAP	16	240	7
TAP	16	288	0
TAP	16	288	4
TAP	16	312	1
TAP	16	312	5
TAP	16	336	2
TAP	16	336	6
TAP	16	360	3
TAP	16	360	7
TAP	17	0	0
HLD	17	0	4	384
TAP	17	48	7
TAP	17	96	6
TAP	17	144	5
TAP	17	192	3
TAP	17	240	2
TAP	17	288	1
TAP	17	336	0
HLD	18	0	1	144
TAP	18	48	2
TAP	18	96	3
HLD	18	144	4	144
TAP	18	192	5
TAP	18	240	6
HLD	18	288	7	96
TAP	18	336	6
HLD	19	0	5	240
TAP	19	48	6
TAP	19	96	7
TAP	19	144	0
TAP	19	192	1
HLD	19	240	0	96
TAP	19	288	1
HLD	19	336	2	240
TAP	20	0	3
TAP	20	48	4
TAP	20	96	5
TAP	20	144	6
TAP	20	192	5
TAP	20	240	4
TAP	20	288	5
TAP	20	312	2
TAP	20	336	5
TAP	20	360	2
TAP	21	0	3
TAP	21	0	4
TAP	21	48	3
TAP	21	48	4
TAP	21	96	2
TAP	21	96	5
TAP	21	144	2
TAP	21	144	5
TAP	21	192	1
TAP	21	192	6
TAP	21	240	1
TAP	21	240	6
TAP	21	288	0
TAP	21	288	7
TAP	21	336	0
TAP	21	336	7
STR	22	0	7
SI_	22	0	7	96	48	3
TAP	22	24	0
TAP	22	48	6
TAP	22	72	1
TAP	22	96	7
STR	22	144	0
SI_	22	144	0	96	48	4
TAP	22	168	0
TAP	22	240	0
TAP	22	240	4
TAP	22	288	7
TAP	22	312	6
TAP	22	336	5
TAP	22	360	4
TAP	23	0	3
TAP	23	24	4
TAP	23	48	3
TAP	23	72	4
BRK	23	96	3
TAP	23	104	2
TAP	23	112	1
TAP	23	120	0
BRK	23	192	4
TAP	23	200	5
TAP	23	208	6
TAP	23	216	7
BRK	23	264	1
TAP	23	272	2
TAP	23	280	3
BRK	23	336	6
TAP	23	344	5
TAP	23	352	4
TAP	24	0	0
TAP	24	12	1
TAP	24	24	2
TAP	24	36	3
TAP	24	48	4
TAP	24	60	5
TAP	24	72	6
TAP	24	84	7
TAP	24	96	0
TAP	24	108	1
TAP	24	120	2
TAP	24	132	3
TAP	24	144	4
TAP	24	156	5
TAP	24	168	6
TAP	24	180	7
TAP	24	192	0
TAP	24	204	1
TAP	24	216	2
TAP	24	228	3
TAP	24	240	4
TAP	24	252	5
TAP	24	264	6
TAP	24	276	7
TAP	24	288	0
TAP	24	300	1
TAP	24	312	2
TAP	24	324	3
TAP	24	336	4
TAP	24	348	5
TAP	24	360	6
TAP	24	372	7
BST	25	0	0
SXL	25	0	0	96	576	6
BST	25	0	4
SXL	25	0	4	96	576	2
HLD	27	0	2	672
STR	27	0	7
SXR	27	0	7	96	192	1
STR	28	0	1
SXR	28	0	1	96	192	4
STR	29	0	0
SXL	29	0	0	96	192	6
HLD	29	0	5	672
STR	30	0	6
SV_	30	0	6	96	48	3
STR	30	192	3
SV_	30	192	3	96	48	0
STR	31	0	0
SLR	31	0	0	96	192	5
STR	31	0	4
SLR	31	0	4	96	192	1
STR	32	0	3
SLL	32	0	3	96	192	6
STR	32	0	7
SLL	32	0	7	96	192	2
STR	33	0	2
SV_	33	0	2	96	192	4
SLL	33	0	2	96	192	4
STR	34	0	7
SI_	34	0	7	96	192	3
SLL	34	0	7	96	192	1
HLD	35	0	1	384
TAP	35	72	3
TAP	35	144	4
TAP	35	216	5
TAP	35	288	6
TAP	35	336	7
HLD	36	0	6	384
TAP	36	72	4
TAP	36	144	3
TAP	36	216	2
TAP	36	288	1
TAP	36	336	0
HLD	37	0	1	384
TAP	37	72	2
TAP	37	144	3
TAP	37	216	4
TAP	37	288	5
TAP	37	336	6
HLD	38	0	6	384
TAP	38	72	5
TAP	38	144	4
TAP	38	216	3
TAP	38	288	2
TAP	38	336	1
HLD	39	0	2	384
TAP	39	72	4
TAP	39	96	4
TAP	39	144	5
TAP	39	216	6
TAP	39	288	7
TAP	39	336	6
HLD	40	0	5	384
TAP	40	72	3
TAP	40	96	3
TAP	40	144	2
TAP	40	216	1
TAP	40	288	0
TAP	40	336	1
HLD	41	0	1	384
TAP	41	48	4
TAP	41	72	4
TAP	41	144	5
TAP	41	192	6
TAP	41	216	6
TAP	41	288	7
TAP	41	336	6
HLD	42	0	6	384
TAP	42	48	3
TAP	42	72	3
TAP	42	144	2
TAP	42	192	1
TAP	42	216	1
TAP	42	288	0
TAP	42	336	1
BRK	43	0	1
TAP	43	48	2
TAP	43	72	3
TAP	43	96	2
TAP	43	120	3
STR	43	144	2
SCL	43	144	2	96	72	7
TAP	43	192	4
TAP	43	216	4
TAP	43	264	5
TAP	43	288	5
TAP	43	336	4
TAP	44	0	6
TAP	44	48	5
TAP	44	72	4
TAP	44	96	5
TAP	44	120	4
STR	44	144	5
SCR	44	144	5	96	72	0
TAP	44	192	3
TAP	44	216	3
TAP	44	264	2
TAP	44	288	2
TAP	44	336	3
TAP	45	0	1
TAP	45	48	2
TAP	45	72	3
TAP	45	96	2
TAP	45	120	3
STR	45	144	2
SXR	45	144	2	96	96	7
TAP	45	192	4
TAP	45	216	4
TAP	45	264	5
TAP	45	288	5
TAP	45	336	4
TAP	46	0	6
TAP	46	48	5
TAP	46	72	4
TAP	46	96	5
TAP	46	120	4
STR	46	144	5
SXL	46	144	5	96	96	0
TAP	46	192	3
TAP	46	216	3
TAP	46	264	2
TAP	46	288	2
TAP	46	336	3
TAP	47	0	1
TAP	47	12	2
TAP	47	24	3
TAP	47	36	4
TAP	47	96	7
TAP	47	120	0
TAP	47	144	7
TAP	47	168	0
TAP	47	192	6
TAP	47	204	5
TAP	47	216	4
TAP	47	228	3
TAP	47	288	0
TAP	47	312	7
TAP	47	336	0
TAP	47	360	7
BRK	48	48	0
TAP	48	60	1
TAP	48	72	2
BRK	48	120	7
TAP	48	132	6
TAP	48	144	5
BRK	48	192	1
TAP	48	204	2
TAP	48	216	3
BRK	48	264	6
TAP	48	276	5
TAP	48	288	4
BRK	48	336	2
TAP	48	348	1
TAP	48	360	0
TAP	49	0	4
TAP	49	12	5
TAP	49	24	6
TAP	49	36	7
TAP	49	48	0
TAP	49	60	1
TAP	49	72	2
TAP	49	84	3
TAP	49	96	4
TAP	49	108	5
TAP	49	120	6
TAP	49	132	7
TAP	49	144	0
TAP	49	156	1
TAP	49	168	2
TAP	49	180	3
TAP	49	192	4
TAP	49	204	5
TAP	49	216	6
TAP	49	228	7
TAP	49	240	0
TAP	49	252	1
TAP	49	264	2
TAP	49	276	3
TAP	49	288	4
TAP	49	300	5
TAP	49	312	6
TAP	49	324	7
TAP	49	336	0
TAP	49	348	1
TAP	49	360	2
TAP	49	372	3
STR	50	0	0
SI_	50	0	0	96	48	3
STR	50	0	4
SI_	50	0	4	96	48	7
STR	50	192	0
SI_	50	192	0	96	48	5
STR	50	192	4
SI_	50	192	4	96	48	1
BRK	50	288	0
BRK	50	288	4
TAP	51	0	0
TAP	51	0	7
TAP	51	48	1
TAP	51	72	0
TAP	51	96	2
TAP	51	120	0
HLD	51	144	1	48
TAP	51	192	6
TAP	51	216	7
TAP	51	240	5
TAP	51	264	7
HLD	51	288	6	48
TAP	51	336	1
TAP	52	0	3
TAP	52	0	5
TAP	52	48	6
TAP	52	72	7
TAP	52	96	5
TAP	52	120	7
HLD	52	144	6	48
TAP	52	192	1
TAP	52	216	0
TAP	52	240	2
TAP	52	264	0
HLD	52	288	1	48
TAP	52	336	6
TAP	53	0	2
TAP	53	0	4
TAP	53	48	5
TAP	53	72	4
TAP	53	96	6
TAP	53	120	4
HLD	53	144	5	48
TAP	53	192	2
TAP	53	216	7
TAP	53	240	1
TAP	53	264	6
TAP	53	288	0
TAP	53	312	5
TAP	53	336	7
TAP	53	360	4
TAP	54	0	0
TAP	54	0	5
TAP	54	48	2
TAP	54	72	3
TAP	54	96	1
TAP	54	120	3
HLD	54	144	2	48
TAP	54	192	5
TAP	54	216	0
TAP	54	240	6
TAP	54	264	1
TAP	54	288	7
TAP	54	312	2
TAP	54	336	0
TAP	54	360	3
TAP	55	0	2
TAP	55	0	7
TAP	55	48	6
TAP	55	72	7
TAP	55	96	5
TAP	55	120	7
HLD	55	144	6	48
TAP	55	192	1
TAP	55	216	3
TAP	55	240	2
TAP	55	264	4
TAP	55	288	3
TAP	55	312	5
TAP	55	336	4
TAP	55	360	6
TAP	56	0	3
TAP	56	0	7
TAP	56	48	1
TAP	56	72	0
TAP	56	96	2
TAP	56	120	0
HLD	56	144	1	48
TAP	56	192	6
TAP	56	216	4
TAP	56	240	5
TAP	56	264	3
TAP	56	288	4
TAP	56	312	2
TAP	56	336	3
TAP	56	360	1
TAP	57	0	0
TAP	57	0	4
TAP	57	48	2
TAP	57	72	3
TAP	57	96	2
TAP	57	120	3
HLD	57	144	1	48
TAP	57	192	5
TAP	57	216	4
TAP	57	240	5
TAP	57	264	4
HLD	57	288	6	48
TAP	57	336	3
STR	58	0	1
SXL	58	0	1	96	96	7
STR	58	0	5
SXL	58	0	5	96	96	3
BRK	58	288	2
BRK	58	288	6
TAP	59	0	0
TAP	59	0	7
STR	59	48	6
SI_	59	48	6	96	48	3
TAP	59	72	7
TAP	59	96	5
TAP	59	120	7
TAP	59	144	6
STR	59	192	1
SI_	59	192	1	96	48	4
TAP	59	216	0
TAP	59	240	2
TAP	59	264	0
TAP	59	288	1
TAP	59	336	7
TAP	60	0	2
TAP	60	0	3
STR	60	48	1
SI_	60	48	1	96	48	4
TAP	60	72	0
TAP	60	96	2
TAP	60	120	0
TAP	60	144	1
STR	60	192	6
SI_	60	192	6	96	48	3
TAP	60	216	7
TAP	60	240	5
TAP	60	264	7
TAP	60	288	6
TAP	60	336	0
TAP	61	0	4
TAP	61	0	5
STR	61	48	2
SI_	61	48	2	96	48	7
TAP	61	72	3
TAP	61	96	1
TAP	61	120	3
TAP	61	144	2
TAP	61	192	5
TAP	61	216	0
TAP	61	240	6
TAP	61	264	1
TAP	61	288	7
TAP	61	312	2
TAP	61	336	0
TAP	61	360	3
TAP	62	0	2
TAP	62	0	7
STR	62	48	5
SI_	62	48	5	96	48	0
TAP	62	72	4
TAP	62	96	6
TAP	62	120	4
TAP	62	144	5
TAP	62	192	2
TAP	62	216	7
TAP	62	240	1
TAP	62	264	6
TAP	62	288	0
TAP	62	312	5
TAP	62	336	7
TAP	62	360	4
TAP	63	0	0
TAP	63	0	5
STR	63	48	1
SI_	63	48	1	96	48	5
TAP	63	72	0
TAP	63	96	2
TAP	63	120	0
TAP	63	144	1
TAP	63	192	6
TAP	63	216	4
TAP	63	240	5
TAP	63	264	3
TAP	63	288	4
TAP	63	312	2
TAP	63	336	3
TAP	63	360	1
TAP	64	0	0
TAP	64	0	4
STR	64	48	6
SI_	64	48	6	96	48	2
TAP	64	72	7
TAP	64	96	5
TAP	64	120	7
TAP	64	144	6
TAP	64	192	1
TAP	64	216	3
TAP	64	240	2
TAP	64	264	4
TAP	64	288	3
TAP	64	312	5
TAP	64	336	4
TAP	64	360	6
STR	65	0	0
SI_	65	0	0	96	24	4
TAP	65	0	7
BRK	65	72	0
STR	65	72	6
SI_	65	72	6	96	24	3
STR	65	144	1
SI_	65	144	1	96	24	4
BRK	65	144	6
BRK	65	216	1
STR	65	216	7
SI_	65	216	7	96	24	3
HLD	65	288	0	48
BRK	65	288	7
BRK	66	0	0
HLD	66	0	6	40
TAP	66	8	1
TAP	66	16	2
TAP	66	24	3
TAP	66	32	4
HLD	66	72	1	40
BRK	66	72	7
TAP	66	80	6
TAP	66	88	5
TAP	66	96	4
TAP	66	104	3
BRK	66	144	0
HLD	66	144	7	40
TAP	66	152	1
TAP	66	160	2
TAP	66	168	3
TAP	66	176	4
HLD	66	216	0	40
BRK	66	216	7
TAP	66	224	6
TAP	66	232	5
TAP	66	240	4
TAP	66	248	3
TAP	66	288	1
TAP	66	288	6
TAP	66	336	0
TAP	66	336	7
TAP	67	0	5
TAP	67	24	4
TAP	67	24	6
TAP	67	72	2
TAP	67	96	1
TAP	67	96	3
STR	67	144	0
SI_	67	144	0	96	48	4
TAP	67	144	7
TAP	67	240	0
TAP	67	240	4
TAP	67	288	5
TAP	67	336	6
TAP	68	0	0
TAP	68	0	7
TAP	68	48	4
TAP	68	72	3
TAP	68	96	4
TAP	68	144	1
STR	68	144	6
SI_	68	144	6	96	48	4
TAP	68	240	2
TAP	68	240	6
TAP	68	288	1
TAP	68	336	0
TAP	69	0	2
TAP	69	0	3
TAP	69	24	1
TAP	69	24	3
TAP	69	72	4
TAP	69	72	5
TAP	69	96	4
TAP	69	96	6
TAP	69	144	0
STR	69	144	7
SI_	69	144	7	96	48	3
TAP	69	240	3
TAP	69	240	7
TAP	69	288	2
TAP	69	336	1
TAP	70	0	0
HLD	70	0	7	96
TAP	70	48	5
HLD	70	96	0	96
TAP	70	144	2
HLD	70	192	6	96
TAP	70	240	4
TAP	70	288	0
TAP	70	336	4
TAP	71	0	5
TAP	71	24	4
TAP	71	24	6
TAP	71	72	2
TAP	71	96	1
TAP	71	96	3
TAP	71	144	6
TAP	71	168	7
TAP	71	192	5
TAP	71	216	0
TAP	71	240	4
TAP	71	264	1
TAP	71	288	3
TAP	71	336	4
TAP	71	336	5
TAP	72	0	2
TAP	72	24	1
TAP	72	24	3
TAP	72	72	5
TAP	72	96	4
TAP	72	96	6
TAP	72	144	1
TAP	72	168	0
TAP	72	192	2
TAP	72	216	7
TAP	72	240	3
TAP	72	264	6
TAP	72	288	4
TAP	72	336	2
TAP	72	336	3
TAP	73	0	0
TAP	73	24	7
TAP	73	48	0
TAP	73	72	7
TAP	73	96	0
TAP	73	120	7
TAP	73	144	0
TAP	73	168	7
TAP	73	192	0
TAP	73	200	1
TAP	73	208	2
TAP	73	216	3
TAP	73	224	4
TAP	73	232	5
TAP	73	240	6
TAP	73	248	7
BRK	73	256	0
TAP	73	336	7
TAP	73	348	6
TAP	73	360	5
TAP	73	372	4
STR	74	0	3
SI_	74	0	3	96	24	1
SI_	74	0	3	96	24	6
TAP	74	72	3
STR	74	144	4
SI_	74	144	4	96	24	1
SI_	74	144	4	96	24	6
TAP	74	216	4
STR	74	288	0
SI_	74	288	0	96	48	4
STR	74	288	7
SI_	74	288	7	96	48	3
BRK	74	336	2
BRK	74	336	5
BRK	75	0	0
BRK	75	0	7

T_REC_TAP	718
T_REC_BRK	31
T_REC_XTP	0
T_REC_HLD	38
T_REC_XHO	0
T_REC_STR	50
T_REC_BST	2
T_REC_XST	0
T_REC_TTP	0
T_REC_THO	0
T_REC_SLD	56
T_REC_ALL	895
T_NUM_TAP	768
T_NUM_BRK	33
T_NUM_HLD	38
T_NUM_SLD	56
T_NUM_ALL	895
T_JUDGE_TAP	801
T_JUDGE_HLD	147
T_JUDGE_SLD	56
T_JUDGE_ALL	1004
TTM_EACHPAIRS	107
TTM_SCR_TAP	384000
TTM_SCR_BRK	85800
TTM_SCR_HLD	38000
TTM_SCR_SLD	84000
TTM_SCR_ALL	591800
TTM_SCR_S	570850
TTM_SCR_SS	588500
TTM_RAT_ACV	10056

