VERSION	0.00.00	1.03.00
FES_MODE	0
BPM_DEF	156.000	156.000	156.000	156.000
MET_DEF	4	4
RESOLUTION	384
CLK_DEF	384
COMPATIBLE_CODE	MA2

BPM	0	0	156.000
MET	0	0	4	4

HLD	1	0	1	72
HLD	1	72	2	72
TAP	1	144	3
TAP	1	240	6
TAP	1	288	5
TAP	1	336	4
TAP	2	0	3
TAP	2	48	2
TAP	2	96	0
TAP	2	96	1
STR	2	144	0
SI_	2	144	0	96	48	4
STR	2	144	1
SI_	2	144	1	96	48	5
HLD	3	0	6	72
HLD	3	72	5	72
TAP	3	144	4
TAP	3	240	3
TAP	3	288	4
TAP	3	336	5
TAP	4	0	6
TAP	4	0	7
STR	4	48	6
SI_	4	48	6	96	48	2
STR	4	48	7
SI_	4	48	7	96	48	3
TAP	4	240	0
TAP	4	240	5
TAP	4	288	0
TAP	4	288	5
HLD	5	0	1	72
HLD	5	72	2	72
HLD	5	144	3	96
TAP	5	240	1
TAP	5	288	0
TAP	5	336	7
HLD	6	0	6	72
HLD	6	72	5	72
HLD	6	144	4	96
TAP	6	240	6
TAP	6	288	7
TAP	6	336	0
HLD	7	0	1	72
HLD	7	72	2	72
HLD	7	144	3	96
TAP	7	240	1
TAP	7	288	0
TAP	7	336	7
STR	8	0	6
SI_	8	0	6	96	48	3
STR	8	96	1
SI_	8	96	1	96	48	5
STR	8	192	7
SI_	8	192	7	96	48	3
BRK	8	288	0
TAP	9	0	2
TAP	9	48	2
TAP	9	96	1
TAP	9	96	3
TAP	9	192	7
TAP	9	240	7
TAP	9	288	1
TAP	9	336	1
TAP	10	0	5
TAP	10	48	5
TAP	10	96	4
TAP	10	96	6
TAP	10	192	0
TAP	10	240	0
TAP	10	288	6
TAP	10	336	6
TAP	11	0	2
TAP	11	48	2
TAP	11	96	3
TAP	11	144	1
STR	11	192	1
SI_	11	192	1	96	48	4
TAP	11	288	7
TAP	12	0	5
TAP	12	48	5
TAP	12	96	4
TAP	12	144	6
STR	12	192	6
SI_	12	192	6	96	48	3
TAP	12	288	0
TAP	13	0	2
TAP	13	48	2
TAP	13	96	1
TAP	13	96	3
TAP	13	192	7
TAP	13	240	7
TAP	13	288	1
TAP	13	336	1
TAP	14	0	5
TAP	14	48	5
TAP	14	96	4
TAP	14	96	6
TAP	14	192	0
TAP	14	240	0
TAP	14	288	6
TAP	14	336	6
TAP	15	0	2
TAP	15	48	2
TAP	15	96	3
TAP	15	144	1
STR	15	192	1
SI_	15	192	1	96	48	4
TAP	15	288	7
TAP	16	0	5
TAP	16	48	5
TAP	16	96	4
TAP	16	144	6
STR	16	192	6
SI_	16	192	6	96	48	3
TAP	16	288	0
HLD	17	0	1	288
TAP	17	96	4
TAP	17	192	6
TAP	17	288	0
TAP	18	0	6
TAP	18	48	4
TAP	18	96	5
TAP	18	144	1
TAP	18	192	3
TAP	18	240	2
TAP	18	288	5
TAP	18	336	4
HLD	19	0	6	96
TAP	19	96	7
TAP	19	192	4
TAP	19	192	5
TAP	19	240	2
TAP	19	288	3
TAP	19	336	2
TAP	20	0	0
TAP	20	0	1
TAP	20	96	3
TAP	20	96	4
HLD	20	192	6	72
HLD	20	264	5	72
TAP	20	336	4
TAP	21	0	3
TAP	21	48	3
TAP	21	96	5
TAP	21	144	5
TAP	21	192	1
TAP	21	240	1
TAP	21	288	7
TAP	21	336	7
TAP	22	0	0
TAP	22	0	6
TAP	22	48	0
TAP	22	48	6
TAP	22	96	0
TAP	22	96	6
TAP	22	144	1
TAP	22	144	7
TAP	22	192	1
TAP	22	192	7
TAP	22	240	1
TAP	22	240	7
STR	22	288	0
SI_	22	288	0	96	48	4
TAP	23	0	5
TAP	23	48	5
TAP	23	96	6
TAP	23	144	6
TAP	23	192	7
TAP	23	240	7
TAP	23	288	0
TAP	23	336	0
TAP	24	0	1
TAP	24	0	6
TAP	24	48	1
TAP	24	48	6
TAP	24	96	2
TAP	24	96	5
TAP	24	144	2
TAP	24	144	5
TAP	24	192	3
TAP	24	216	4
TAP	24	240	3
TAP	24	264	4
TAP	24	288	3
TAP	24	312	4
TAP	24	336	3
TAP	24	360	4
STR	25	0	3
SCL	25	0	3	96	480	4
STR	27	0	1
SI_	27	0	1	96	432	4
BRK	27	0	6
STR	28	0	6
SI_	28	0	6	96	432	1
STR	29	0	3
SI_	29	0	3	96	432	6
HLD	30	0	7	192
HLD	30	192	0	192
STR	31	0	6
SI_	31	0	6	96	432	3
STR	32	0	1
SI_	32	0	1	96	432	6
STR	33	0	4
SI_	33	0	4	96	432	1
HLD	34	0	0	192
HLD	34	192	7	192
STR	35	0	0
SCR	35	0	0	96	96	3
STR	35	192	5
SCR	35	192	5	96	96	0
STR	36	0	2
SCR	36	0	2	96	96	5
STR	36	192	7
SCR	36	192	7	96	96	2
STR	37	0	4
SCR	37	0	4	96	96	7
STR	37	192	1
SCR	37	192	1	96	96	4
STR	38	0	6
SCR	38	0	6	96	96	1
STR	38	192	2
SCR	38	192	2	96	96	5
STR	39	0	6
SXL	39	0	6	96	192	1
TAP	39	192	3
TAP	39	288	2
STR	40	0	1
SXL	40	0	1	96	192	4
TAP	40	192	6
TAP	40	288	5
STR	41	0	4
SXL	41	0	4	96	192	7
TAP	41	192	2
TAP	41	288	1
STR	42	0	0
SXL	42	0	0	96	192	3
TAP	42	192	4
TAP	42	288	5
HLD	43	0	6	72
HLD	43	72	5	72
HLD	43	144	4	72
HLD	43	216	3	72
TAP	43	288	4
TAP	43	336	2
TAP	43	336	3
HLD	44	0	1	72
HLD	44	72	2	72
HLD	44	144	3	72
HLD	44	216	4	72
TAP	44	288	3
TAP	44	336	4
TAP	44	336	5
HLD	45	0	6	72
HLD	45	72	5	72
HLD	45	144	4	72
HLD	45	216	3	72
TAP	45	288	4
TAP	45	336	1
TAP	45	336	2
HLD	46	0	0	72
HLD	46	72	2	72
HLD	46	144	3	72
HLD	46	216	4	72
TAP	46	288	3
TAP	46	336	5
TAP	46	336	6
STR	47	0	4
SI_	47	0	4	96	48	0
HLD	47	0	7	96
HLD	47	192	0	96
STR	47	192	3
SI_	47	192	3	96	48	7
TAP	48	0	0
TAP	48	0	7
HLD	48	48	0	48
HLD	48	48	7	48
HLD	48	120	1	48
HLD	48	120	6	48
HLD	48	192	2	48
HLD	48	192	5	48
HLD	48	264	3	48
HLD	48	264	4	48
STR	48	336	3
SUR	48	336	3	96	240	4
STR	48	336	4
SCR	48	336	4	96	240	3
TAP	49	0	3
TAP	49	0	4
STR	50	0	3
SXR	50	0	3	96	144	0
STR	50	0	4
SXL	50	0	4	96	144	7
BRK	50	288	1
BRK	50	288	6
TAP	51	0	0
TAP	51	0	7
TAP	51	48	1
TAP	51	72	2
TAP	51	120	2
TAP	51	144	3
TAP	51	192	3
TAP	51	216	4
TAP	51	264	4
TAP	51	288	5
TAP	51	336	4
TAP	51	336	6
TAP	52	0	3
TAP	52	0	7
TAP	52	48	6
TAP	52	72	5
TAP	52	120	5
TAP	52	144	4
TAP	52	192	4
TAP	52	216	3
TAP	52	264	3
TAP	52	288	2
TAP	52	336	1
TAP	52	336	3
TAP	53	0	0
TAP	53	0	4
TAP	53	48	1
TAP	53	72	2
TAP	53	120	2
TAP	53	144	3
TAP	53	192	3
TAP	53	216	4
TAP	53	264	4
TAP	53	288	5
TAP	53	336	4
TAP	53	336	6
TAP	54	0	3
TAP	54	0	7
TAP	54	48	6
TAP	54	72	5
TAP	54	120	5
TAP	54	144	4
TAP	54	192	4
TAP	54	216	3
TAP	54	264	3
TAP	54	288	2
TAP	54	336	1
TAP	54	336	3
TAP	55	0	0
TAP	55	0	7
TAP	55	48	1
TAP	55	72	0
TAP	55	120	6
TAP	55	144	7
TAP	55	192	1
TAP	55	216	0
TAP	55	264	6
TAP	55	288	7
TAP	55	336	2
TAP	55	336	3
TAP	56	0	4
TAP	56	0	5
TAP	56	48	2
TAP	56	72	0
TAP	56	120	5
TAP	56	144	7
TAP	56	192	2
TAP	56	216	0
TAP	56	264	5
TAP	56	288	7
TAP	56	336	2
TAP	56	336	3
TAP	57	0	4
TAP	57	0	5
TAP	57	48	3
TAP	57	72	0
TAP	57	120	4
TAP	57	144	7
TAP	57	192	3
TAP	57	216	0
TAP	57	264	4
BST	57	288	7
SI_	57	288	7	96	48	3
BRK	58	0	1
BRK	58	72	5
BRK	58	144	0
BRK	58	144	2
BRK	58	216	5
BRK	58	216	7
TAP	58	288	3
TAP	58	288	4
TAP	58	336	2
TAP	58	336	5
TAP	59	0	1
HLD	59	0	6	96
TAP	59	48	0
TAP	59	96	7
TAP	59	144	6
TAP	59	192	5
TAP	59	240	4
TAP	59	288	3
TAP	59	336	2
HLD	60	0	1	96
TAP	60	0	6
TAP	60	48	7
TAP	60	96	0
TAP	60	144	1
TAP	60	192	2
TAP	60	240	3
TAP	60	288	4
TAP	60	336	5
TAP	61	0	1
HLD	61	0	6	144
TAP	61	48	2
TAP	61	96	3
HLD	61	144	4	144
TAP	61	192	5
TAP	61	240	6
HLD	61	288	7	96
TAP	61	336	3
HLD	62	0	1	144
TAP	62	48	5
TAP	62	96	4
HLD	62	144	3	144
TAP	62	192	2
TAP	62	240	1
HLD	62	288	0	96
TAP	62	336	5
TAP	63	0	7
TAP	63	48	6
TAP	63	96	5
TAP	63	144	3
TAP	63	144	4
TAP	63	192	2
TAP	63	240	1
TAP	63	288	0
TAP	63	288	7
TAP	63	336	6
TAP	64	0	5
TAP	64	0	7
TAP	64	48	4
TAP	64	96	3
TAP	64	144	0
TAP	64	144	2
TAP	64	192	1
TAP	64	240	0
TAP	64	240	4
TAP	64	288	1
TAP	64	288	5
TAP	64	336	2
TAP	64	336	6
HLD	65	0	3	48
HLD	65	0	7	48
HLD	65	72	0	48
HLD	65	72	4	48
TAP	65	144	3
TAP	65	144	7
TAP	65	192	2
TAP	65	192	6
TAP	65	240	1
TAP	65	240	5
BST	65	288	0
SI_	65	288	0	96	48	4
TAP	65	288	4
BRK	66	0	6
BRK	66	72	2
BRK	66	144	5
BRK	66	144	7
BRK	66	216	0
BRK	66	216	2
TAP	66	288	3
TAP	66	288	4
TAP	66	336	2
TAP	66	336	5
STR	67	0	1
SXR	67	0	1	96	480	4
STR	67	0	6
SXL	67	0	6	96	480	3
HLD	69	0	1	72
HLD	69	72	3	72
STR	69	144	4
SI_	69	144	4	96	48	0
TAP	69	240	7
TAP	69	288	7
HLD	70	0	6	72
HLD	70	72	4	72
STR	70	144	3
SI_	70	144	3	96	48	7
TAP	70	240	0
TAP	70	288	0
STR	71	0	1
SI_	71	0	1	96	48	5
TAP	71	0	7
TAP	71	96	3
TAP	71	192	6
TAP	71	240	4
TAP	71	288	3
TAP	71	336	1
TAP	72	0	0
STR	72	0	6
SI_	72	0	6	96	48	2
TAP	72	96	4
TAP	72	192	1
TAP	72	240	3
TAP	72	288	4
TAP	72	336	6
STR	73	0	1
SI_	73	0	1	96	48	4
TAP	73	48	1
STR	73	96	6
SI_	73	96	6	96	48	2
TAP	73	144	6
STR	73	192	0
SI_	73	192	0	96	48	4
TAP	73	240	0
TAP	73	288	7
TAP	74	0	5
TAP	74	0	7
TAP	74	72	0
TAP	74	72	2
TAP	74	144	4
TAP	74	144	6
TAP	74	216	1
TAP	74	216	3
TAP	74	288	2
TAP	74	288	5
TAP	74	336	1
TAP	74	336	6
BRK	75	0	0
BRK	75	0	7

T_REC_TAP	347
T_REC_BRK	18
T_REC_XTP	0
T_REC_HLD	63
T_REC_XHO	0
T_REC_STR	46
T_REC_BST	2
T_REC_XST	0
T_REC_TTP	0
T_REC_THO	0
T_REC_SLD	48
T_REC_ALL	524
T_NUM_TAP	393
T_NUM_BRK	20
T_NUM_HLD	63
T_NUM_SLD	48
T_NUM_ALL	524
T_JUDGE_TAP	413
T_JUDGE_HLD	130
T_JUDGE_SLD	48
T_JUDGE_ALL	591
TTM_EACHPAIRS	86
TTM_SCR_TAP	196500
TTM_SCR_BRK	52000
TTM_SCR_HLD	63000
TTM_SCR_SLD	72000
TTM_SCR_ALL	383500
TTM_SCR_S	370100
TTM_SCR_SS	381500
TTM_RAT_ACV	10052

