VERSION	0.00.00	1.03.00
FES_MODE	0
BPM_DEF	156.000	156.000	156.000	156.000
MET_DEF	4	4
RESOLUTION	384
CLK_DEF	384
COMPATIBLE_CODE	MA2

BPM	0	0	156.000
MET	0	0	4	4

HLD	1	0	1	96
TAP	1	96	0
TAP	1	192	6
TAP	1	192	7
TAP	2	0	0
TAP	2	0	1
TAP	2	96	6
TAP	2	96	7
TAP	2	192	0
TAP	2	192	7
HLD	3	0	6	96
TAP	3	96	7
TAP	3	192	0
TAP	3	192	1
TAP	4	0	0
TAP	4	0	7
TAP	4	96	1
TAP	4	96	6
TAP	4	192	2
TAP	4	192	5
TAP	4	288	3
TAP	4	288	4
HLD	5	0	5	96
TAP	5	96	4
TAP	5	192	2
TAP	5	192	3
TAP	6	0	4
TAP	6	0	5
TAP	6	96	2
TAP	6	96	3
TAP	6	192	3
TAP	6	192	4
HLD	7	0	2	96
TAP	7	96	3
HLD	7	192	5	96
TAP	7	288	4
STR	8	0	2
SCL	8	0	2	96	120	7
TAP	8	0	3
BRK	8	288	6
TAP	9	0	6
TAP	9	96	7
TAP	9	192	6
TAP	9	192	7
TAP	10	0	1
TAP	10	96	0
TAP	10	192	0
TAP	10	192	1
TAP	11	0	6
TAP	11	96	6
TAP	11	96	7
TAP	11	192	1
TAP	11	288	0
TAP	11	288	1
TAP	12	0	7
TAP	12	96	6
TAP	12	192	5
TAP	12	288	4
TAP	13	0	2
TAP	13	96	3
TAP	13	192	2
TAP	13	192	3
TAP	14	0	5
TAP	14	96	4
TAP	14	192	4
TAP	14	192	5
TAP	15	0	2
TAP	15	96	2
TAP	15	96	3
TAP	15	192	5
TAP	15	288	4
TAP	15	288	5
TAP	16	0	2
TAP	16	96	2
TAP	16	96	3
TAP	16	192	1
TAP	16	192	4
TAP	17	0	4
TAP	17	96	5
TAP	17	192	4
TAP	17	192	6
TAP	18	0	3
TAP	18	96	2
TAP	18	192	1
TAP	18	192	3
TAP	19	0	0
TAP	19	96	1
TAP	19	192	0
TAP	19	192	2
TAP	20	0	7
TAP	20	96	6
TAP	20	192	5
TAP	20	192	7
TAP	21	0	5
TAP	21	96	4
TAP	21	96	5
TAP	21	192	6
TAP	21	288	6
TAP	21	288	7
TAP	22	0	1
TAP	22	96	0
TAP	22	96	1
TAP	22	192	2
TAP	22	288	2
TAP	22	288	3
TAP	23	0	4
TAP	23	96	3
TAP	23	96	5
TAP	23	192	2
TAP	23	288	1
TAP	23	288	3
TAP	24	0	5
TAP	24	96	4
TAP	24	96	6
TAP	24	192	1
TAP	24	288	0
TAP	24	288	2
BST	25	0	0
SXL	25	0	0	96	384	3
BST	25	0	7
SXR	25	0	7	96	384	4
BRK	27	0	3
BRK	27	0	4
HLD	28	0	3	384
HLD	29	0	2	384
TAP	30	0	1
TAP	30	192	0
HLD	31	0	7	384
HLD	32	0	6	384
HLD	33	0	5	384
TAP	34	0	4
TAP	34	192	3
TAP	34	192	4
HLD	35	0	3	384
HLD	36	0	4	384
HLD	37	0	5	384
TAP	38	0	6
TAP	38	192	7
TAP	39	0	0
TAP	39	192	0
TAP	39	192	1
TAP	40	0	1
TAP	40	192	1
TAP	40	192	2
TAP	41	0	2
TAP	41	192	2
TAP	41	192	3
TAP	42	0	3
TAP	42	192	3
TAP	42	192	4
STR	43	0	4
SCL	43	0	4	96	192	1
TAP	44	0	0
TAP	44	96	0
TAP	44	192	0
TAP	44	192	7
STR	45	0	0
SCL	45	0	0	96	192	5
TAP	46	0	4
TAP	46	96	4
TAP	46	192	3
TAP	46	192	4
STR	47	0	2
SI_	47	0	2	96	144	7
STR	47	0	3
SI_	47	0	3	96	144	6
STR	48	0	0
SI_	48	0	0	96	144	5
STR	48	0	1
SI_	48	0	1	96	144	4
TAP	49	0	2
TAP	49	96	1
TAP	49	96	3
TAP	49	192	5
TAP	49	288	4
TAP	49	288	6
TAP	50	0	0
TAP	50	0	2
TAP	50	96	5
TAP	50	96	7
BRK	50	192	1
BRK	50	192	6
TAP	51	0	2
TAP	51	96	2
TAP	51	96	3
TAP	51	192	5
TAP	51	288	4
TAP	51	288	5
TAP	52	0	2
TAP	52	0	3
TAP	52	96	4
TAP	52	96	5
TAP	52	192	2
TAP	52	192	3
TAP	52	288	1
TAP	53	0	1
TAP	53	96	0
TAP	53	96	1
TAP	53	192	6
TAP	53	288	6
TAP	53	288	7
TAP	54	0	0
TAP	54	0	1
TAP	54	96	6
TAP	54	96	7
TAP	54	192	0
TAP	54	192	1
TAP	55	0	2
TAP	55	96	2
TAP	55	96	3
TAP	55	192	1
TAP	55	288	0
TAP	55	288	1
TAP	56	0	2
TAP	56	0	3
TAP	56	96	0
TAP	56	96	1
TAP	56	192	2
TAP	56	192	3
TAP	56	288	4
TAP	57	0	5
TAP	57	96	4
TAP	57	96	5
TAP	57	192	6
TAP	57	288	6
TAP	57	288	7
STR	58	0	4
SCL	58	0	4	96	144	1
STR	58	0	5
SCR	58	0	5	96	144	0
HLD	59	0	6	96
TAP	59	96	7
HLD	59	192	1	96
TAP	59	288	0
TAP	60	0	6
TAP	60	0	7
TAP	60	96	0
TAP	60	96	1
TAP	60	192	2
TAP	60	192	3
TAP	60	288	4
HLD	61	0	5	96
TAP	61	96	4
HLD	61	192	2	96
TAP	61	288	3
TAP	62	0	4
TAP	62	0	5
TAP	62	96	2
TAP	62	96	3
TAP	62	192	0
TAP	62	192	1
HLD	63	0	6	96
TAP	63	96	7
HLD	63	192	5	96
TAP	63	288	4
TAP	64	0	6
TAP	64	0	7
TAP	64	96	4
TAP	64	96	5
TAP	64	192	2
TAP	64	192	3
TAP	64	288	1
HLD	65	0	1	96
TAP	65	96	0
HLD	65	192	2	96
STR	65	288	3
SI_	65	288	3	96	96	7
TAP	66	192	0
TAP	66	192	7
BRK	66	288	1
BRK	66	288	6
HLD	67	0	5	96
TAP	67	96	4
TAP	67	192	2
TAP	67	192	3
TAP	68	0	4
TAP	68	0	5
TAP	68	96	2
TAP	68	96	3
TAP	68	192	2
TAP	68	192	5
HLD	69	0	2	96
TAP	69	96	3
TAP	69	192	4
TAP	69	192	5
TAP	70	0	2
TAP	70	0	3
TAP	70	96	1
TAP	70	96	4
TAP	70	192	0
TAP	70	192	5
TAP	70	288	6
TAP	70	288	7
HLD	71	0	1	96
TAP	71	96	0
TAP	71	192	6
TAP	71	192	7
TAP	72	0	0
TAP	72	0	1
TAP	72	96	6
TAP	72	96	7
TAP	72	192	2
TAP	72	192	5
HLD	73	0	6	96
TAP	73	96	7
HLD	73	192	1	96
TAP	73	288	0
HLD	74	0	6	96
HLD	74	96	5	96
HLD	74	192	4	96
STR	74	288	3
SF_	74	288	3	96	288	7

T_REC_TAP	250
T_REC_BRK	7
T_REC_XTP	0
T_REC_HLD	29
T_REC_XHO	0
T_REC_STR	11
T_REC_BST	2
T_REC_XST	0
T_REC_TTP	0
T_REC_THO	0
T_REC_SLD	13
T_REC_ALL	312
T_NUM_TAP	261
T_NUM_BRK	9
T_NUM_HLD	29
T_NUM_SLD	13
T_NUM_ALL	312
T_JUDGE_TAP	270
T_JUDGE_HLD	106
T_JUDGE_SLD	13
T_JUDGE_ALL	389
TTM_EACHPAIRS	94
TTM_SCR_TAP	130500
TTM_SCR_BRK	23400
TTM_SCR_HLD	29000
TTM_SCR_SLD	19500
TTM_SCR_ALL	202400
TTM_SCR_S	195500
TTM_SCR_SS	201500
TTM_RAT_ACV	10044

