VERSION	0.00.00	1.03.00
FES_MODE	0
BPM_DEF	156.000	156.000	156.000	156.000
MET_DEF	4	4
RESOLUTION	384
CLK_DEF	384
COMPATIBLE_CODE	MA2

BPM	0	0	156.000
MET	0	0	4	4

TAP	5	0	0
TAP	5	192	0
TAP	6	0	1
TAP	6	192	1
TAP	7	0	2
TAP	7	96	2
TAP	7	192	2
TAP	7	288	2
BRK	8	0	3
BRK	8	0	4
TAP	9	0	4
TAP	9	96	4
TAP	9	192	4
TAP	10	0	5
TAP	10	96	5
TAP	10	192	5
TAP	11	0	6
TAP	11	96	6
TAP	11	192	6
TAP	12	0	7
TAP	12	96	7
TAP	12	192	0
TAP	12	288	0
TAP	13	0	7
TAP	13	96	7
TAP	13	192	7
TAP	14	0	6
TAP	14	96	6
TAP	14	192	6
TAP	15	0	5
TAP	15	96	5
TAP	15	192	5
TAP	16	0	4
TAP	16	96	4
TAP	16	192	3
BRK	16	288	3
TAP	17	0	4
TAP	17	96	4
TAP	17	192	3
TAP	17	192	4
TAP	18	0	2
TAP	18	96	2
TAP	18	192	2
TAP	18	192	3
TAP	19	0	1
TAP	19	96	1
TAP	19	192	0
TAP	19	192	1
TAP	20	0	7
TAP	20	96	7
TAP	20	192	0
TAP	20	288	0
TAP	21	0	7
TAP	21	96	7
TAP	21	192	0
TAP	21	192	7
TAP	22	0	1
TAP	22	96	1
TAP	22	192	0
TAP	22	192	1
TAP	23	0	2
TAP	23	96	2
TAP	23	192	3
TAP	23	288	3
TAP	24	0	4
TAP	24	96	4
TAP	24	192	5
TAP	24	288	5
STR	25	0	3
SI_	25	0	3	96	288	0
HLD	27	0	7	384
HLD	29	0	0	384
HLD	31	0	6	384
HLD	33	0	1	384
STR	35	0	7
SI_	35	0	7	96	288	4
STR	37	0	0
SI_	37	0	0	96	288	3
STR	39	0	6
SI_	39	0	6	96	288	3
STR	41	0	1
SI_	41	0	1	96	288	4
TAP	43	0	7
TAP	43	192	7
TAP	44	0	6
TAP	44	192	6
TAP	45	0	5
TAP	45	192	5
TAP	46	0	4
TAP	46	192	3
TAP	46	192	4
TAP	47	0	3
TAP	47	96	3
TAP	47	192	3
TAP	48	0	2
TAP	48	96	2
TAP	48	192	2
TAP	49	0	1
TAP	49	96	1
TAP	49	192	0
TAP	49	288	0
TAP	50	0	7
TAP	50	96	7
BRK	50	192	1
BRK	50	192	6
TAP	51	0	1
TAP	51	96	1
TAP	51	192	1
TAP	52	0	2
TAP	52	96	2
TAP	52	192	2
TAP	53	0	3
TAP	53	96	3
TAP	53	192	4
TAP	53	288	4
TAP	54	0	3
TAP	54	96	4
TAP	54	192	3
TAP	55	0	4
TAP	55	96	4
TAP	55	192	4
TAP	56	0	5
TAP	56	96	5
TAP	56	192	5
TAP	57	0	6
TAP	57	96	6
TAP	57	192	7
TAP	57	288	7
TAP	58	0	0
TAP	58	96	7
BRK	58	192	0
TAP	59	0	7
TAP	59	96	7
TAP	59	192	0
TAP	59	192	7
TAP	60	0	6
TAP	60	96	6
TAP	60	192	6
TAP	60	192	7
TAP	61	0	5
TAP	61	96	5
TAP	61	192	4
TAP	61	288	4
TAP	62	0	3
TAP	62	96	3
TAP	62	192	4
TAP	62	288	4
TAP	63	0	3
TAP	63	96	3
TAP	63	192	3
TAP	63	192	4
TAP	64	0	2
TAP	64	96	2
TAP	64	192	2
TAP	64	192	3
TAP	65	0	1
TAP	65	96	1
TAP	65	192	0
TAP	65	288	0
TAP	66	0	7
TAP	66	96	7
TAP	66	192	6
TAP	66	288	6
STR	67	0	0
SI_	67	0	0	96	288	4
STR	69	0	7
SI_	69	0	7	96	288	3
TAP	71	0	1
TAP	71	96	1
TAP	71	192	1
TAP	72	0	2
TAP	72	96	2
TAP	72	192	2
TAP	73	0	3
TAP	73	96	3
TAP	73	192	4
TAP	73	288	4
TAP	74	0	2
TAP	74	96	2
TAP	74	192	5
TAP	74	288	5
BRK	75	0	3
BRK	75	0	4

T_REC_TAP	157
T_REC_BRK	8
T_REC_XTP	0
T_REC_HLD	4
T_REC_XHO	0
T_REC_STR	7
T_REC_BST	0
T_REC_XST	0
T_REC_TTP	0
T_REC_THO	0
T_REC_SLD	7
T_REC_ALL	183
T_NUM_TAP	164
T_NUM_BRK	8
T_NUM_HLD	4
T_NUM_SLD	7
T_NUM_ALL	183
T_JUDGE_TAP	172
T_JUDGE_HLD	32
T_JUDGE_SLD	7
T_JUDGE_ALL	211
TTM_EACHPAIRS	13
TTM_SCR_TAP	82000
TTM_SCR_BRK	20800
TTM_SCR_HLD	4000
TTM_SCR_SLD	10500
TTM_SCR_ALL	117300
TTM_SCR_S	113050
TTM_SCR_SS	116500
TTM_RAT_ACV	10068

