VERSION	0.00.00	1.03.00
FES_MODE	0
BPM_DEF	176.000	176.000	176.000	176.000
MET_DEF	4	4
RESOLUTION	384
CLK_DEF	384
COMPATIBLE_CODE	MA2

BPM	0	0	176.000
MET	0	0	4	4

TAP	1	0	0
TAP	1	0	1
TAP	1	96	0
TAP	1	96	1
TAP	1	192	2
TAP	1	192	7
TAP	2	0	6
TAP	2	0	7
TAP	2	96	6
TAP	2	96	7
TAP	2	192	0
TAP	2	192	5
TAP	3	0	0
TAP	3	0	1
TAP	3	96	0
TAP	3	96	1
TAP	3	192	2
TAP	3	192	7
TAP	4	0	6
TAP	4	0	7
TAP	4	96	6
TAP	4	96	7
TAP	4	192	0
TAP	4	192	5
TAP	5	0	0
TAP	5	0	1
TAP	5	96	0
TAP	5	96	1
TAP	5	192	2
TAP	5	192	7
TAP	6	0	6
TAP	6	0	7
TAP	6	96	6
TAP	6	96	7
TAP	6	192	0
TAP	6	192	5
TAP	7	0	0
TAP	7	0	1
TAP	7	96	0
TAP	7	96	1
TAP	7	192	2
TAP	7	192	7
STR	8	0	0
SXL	8	0	0	96	144	3
STR	8	0	7
SXR	8	0	7	96	144	4
BRK	8	288	1
BRK	8	288	6
TAP	9	0	4
TAP	9	0	5
TAP	9	48	6
TAP	9	96	7
STR	9	144	0
SCL	9	144	0	96	48	5
TAP	9	144	1
STR	9	240	0
SCR	9	240	0	96	96	5
TAP	9	336	0
TAP	10	48	6
TAP	10	96	0
TAP	10	96	7
TAP	10	144	0
TAP	10	144	1
TAP	10	168	0
TAP	10	168	1
TAP	10	216	6
TAP	10	216	7
HLD	10	240	6	96
HLD	10	240	7	96
TAP	11	0	2
TAP	11	0	3
TAP	11	48	1
TAP	11	96	0
TAP	11	144	6
STR	11	144	7
SCR	11	144	7	96	48	2
STR	11	240	7
SCL	11	240	7	96	48	4
TAP	11	336	7
TAP	12	0	0
TAP	12	24	1
TAP	12	48	2
TAP	12	72	7
TAP	12	96	6
TAP	12	120	5
TAP	12	144	1
TAP	12	168	2
TAP	12	192	3
TAP	12	216	6
TAP	12	240	5
TAP	12	264	4
BRK	12	288	0
TAP	13	0	4
TAP	13	0	5
TAP	13	48	6
TAP	13	96	7
STR	13	144	0
SCL	13	144	0	96	48	5
TAP	13	144	1
STR	13	240	0
SCR	13	240	0	96	96	5
TAP	13	336	0
TAP	14	48	6
TAP	14	96	0
TAP	14	96	7
TAP	14	144	0
TAP	14	144	1
TAP	14	168	0
TAP	14	168	1
TAP	14	216	6
TAP	14	216	7
HLD	14	240	6	96
HLD	14	240	7	96
TAP	15	0	2
TAP	15	0	3
TAP	15	48	1
TAP	15	96	0
TAP	15	144	6
STR	15	144	7
SCR	15	144	7	96	48	2
STR	15	240	7
SCL	15	240	7	96	48	4
TAP	15	336	7
TAP	16	0	0
TAP	16	24	1
TAP	16	48	2
TAP	16	72	7
TAP	16	96	6
TAP	16	120	5
TAP	16	144	1
TAP	16	168	2
TAP	16	192	3
TAP	16	216	6
TAP	16	240	5
TAP	16	264	4
TAP	16	288	0
TAP	16	312	1
TAP	16	336	2
TAP	16	360	3
STR	17	0	0
SI_	17	0	0	96	48	5
TAP	17	48	2
TAP	17	96	0
TAP	17	144	2
STR	17	192	0
SI_	17	192	0	96	48	5
TAP	17	240	2
TAP	17	288	0
TAP	17	336	2
TAP	18	0	6
STR	18	0	7
SI_	18	0	7	96	48	2
TAP	18	48	5
TAP	18	96	7
TAP	18	144	5
STR	18	192	7
SI_	18	192	7	96	48	2
TAP	18	240	5
TAP	18	288	7
TAP	18	336	5
BST	19	0	1
SI_	19	0	1	96	48	4
BST	19	0	5
SI_	19	0	5	96	48	0
BST	19	96	1
SCL	19	96	1	96	48	6
BST	19	96	5
SCL	19	96	5	96	48	2
BRK	19	192	1
BRK	19	192	5
TAP	20	0	1
TAP	20	24	3
TAP	20	48	2
TAP	20	72	4
TAP	20	96	3
TAP	20	120	5
TAP	20	144	4
TAP	20	168	6
TAP	20	192	0
TAP	20	192	7
TAP	20	240	1
TAP	20	240	6
TAP	21	0	6
STR	21	0	7
SI_	21	0	7	96	48	2
TAP	21	48	5
TAP	21	96	7
TAP	21	144	5
STR	21	192	7
SI_	21	192	7	96	48	2
TAP	21	240	5
TAP	21	288	7
TAP	21	336	5
STR	22	0	0
SI_	22	0	0	96	48	5
TAP	22	0	1
TAP	22	48	2
TAP	22	96	0
TAP	22	144	2
STR	22	192	0
SI_	22	192	0	96	48	5
TAP	22	240	2
TAP	22	288	0
TAP	22	336	2
BST	23	0	2
SI_	23	0	2	96	48	7
BST	23	0	6
SI_	23	0	6	96	48	3
BST	23	96	2
SCR	23	96	2	96	48	5
BST	23	96	6
SCR	23	96	6	96	48	1
BRK	23	192	2
BRK	23	192	6
TAP	24	0	6
TAP	24	24	4
TAP	24	48	5
TAP	24	72	3
TAP	24	96	4
TAP	24	120	2
TAP	24	144	3
TAP	24	168	1
TAP	24	192	0
TAP	24	192	7
BRK	24	240	1
BRK	24	240	6
TAP	24	336	3
TAP	24	360	4
BRK	25	0	2
BRK	25	0	5
TAP	25	96	2
TAP	25	144	1
TAP	25	144	4
TAP	25	192	0
TAP	25	240	2
TAP	25	240	7
TAP	25	288	6
TAP	25	336	0
TAP	25	336	5
STR	26	0	4
SCR	26	0	4	96	48	7
STR	26	48	3
SCL	26	48	3	96	48	0
TAP	26	96	4
TAP	26	144	3
BST	26	240	0
SUL	26	240	0	96	48	3
BST	26	240	7
SUR	26	240	7	96	48	4
BRK	26	336	0
BRK	26	336	7
TAP	27	48	2
TAP	27	48	6
STR	27	96	1
SI_	27	96	1	96	48	5
STR	27	144	5
SI_	27	144	5	96	48	1
TAP	27	192	1
TAP	27	240	7
TAP	27	336	3
TAP	27	336	4
TAP	28	48	1
TAP	28	48	5
STR	28	96	6
SI_	28	96	6	96	48	2
STR	28	144	2
SI_	28	144	2	96	48	6
TAP	28	192	6
TAP	28	240	0
TAP	28	288	1
TAP	28	336	2
TAP	28	336	5
BRK	29	0	0
BRK	29	0	7
TAP	29	48	6
TAP	29	72	7
TAP	29	96	6
TAP	29	120	0
TAP	29	144	6
TAP	29	192	1
TAP	29	192	5
TAP	29	240	0
TAP	29	264	7
TAP	29	288	0
TAP	29	312	6
TAP	29	336	0
TAP	30	0	1
TAP	30	0	5
TAP	30	48	7
TAP	30	72	0
TAP	30	96	7
TAP	30	120	1
TAP	30	144	7
TAP	30	192	2
TAP	30	192	6
TAP	30	240	1
TAP	30	264	0
TAP	30	288	1
TAP	30	312	7
TAP	30	336	1
TAP	31	0	2
TAP	31	0	6
TAP	31	48	1
TAP	31	72	5
TAP	31	96	2
TAP	31	120	6
TAP	31	144	3
TAP	31	168	7
TAP	31	192	4
TAP	31	216	0
TAP	31	240	3
TAP	31	264	7
TAP	31	288	2
TAP	31	312	6
TAP	31	336	1
TAP	31	360	5
TAP	32	0	0
TAP	32	0	4
TAP	32	48	1
TAP	32	48	5
TAP	32	96	2
TAP	32	96	6
TAP	32	144	3
TAP	32	144	7
STR	32	288	0
SI_	32	288	0	96	48	4
STR	32	288	1
SI_	32	288	1	96	48	4
TAP	32	336	2
BRK	33	0	0
BRK	33	0	1
STR	33	96	6
SI_	33	96	6	96	48	3
STR	33	96	7
SI_	33	96	7	96	48	3
TAP	33	144	5
BRK	33	192	6
BRK	33	192	7
STR	33	288	0
SI_	33	288	0	96	48	4
STR	33	288	1
SI_	33	288	1	96	48	4
TAP	33	336	2
BRK	34	0	0
BRK	34	0	1
STR	34	96	6
SI_	34	96	6	96	48	3
STR	34	96	7
SI_	34	96	7	96	48	3
TAP	34	144	5
BRK	34	192	6
BRK	34	192	7
STR	34	288	0
SI_	34	288	0	96	48	4
STR	34	288	1
SI_	34	288	1	96	48	4
TAP	34	336	2
BRK	35	0	0
BRK	35	0	1
STR	35	96	6
SI_	35	96	6	96	48	3
STR	35	96	7
SI_	35	96	7	96	48	3
TAP	35	144	5
BRK	35	192	6
BRK	35	192	7
TAP	35	288	4
TAP	35	288	5
TAP	35	336	7
TAP	36	0	2
TAP	36	0	3
TAP	36	48	0
TAP	36	96	4
TAP	36	96	5
TAP	36	144	7
TAP	36	192	2
TAP	36	192	3
TAP	36	240	0
STR	36	288	6
SI_	36	288	6	96	48	2
STR	36	288	7
SI_	36	288	7	96	48	2
TAP	36	336	5
BRK	37	0	6
BRK	37	0	7
STR	37	96	0
SI_	37	96	0	96	48	5
STR	37	96	1
SI_	37	96	1	96	48	5
TAP	37	144	2
BRK	37	192	0
BRK	37	192	1
STR	37	288	6
SI_	37	288	6	96	48	2
STR	37	288	7
SI_	37	288	7	96	48	2
TAP	37	336	5
BRK	38	0	6
BRK	38	0	7
STR	38	96	0
SI_	38	96	0	96	48	5
STR	38	96	1
SI_	38	96	1	96	48	5
TAP	38	144	2
BRK	38	192	0
BRK	38	192	1
STR	38	288	6
SI_	38	288	6	96	48	2
STR	38	288	7
SI_	38	288	7	96	48	2
TAP	38	336	5
BRK	39	0	6
BRK	39	0	7
STR	39	96	0
SI_	39	96	0	96	48	5
STR	39	96	1
SI_	39	96	1	96	48	5
TAP	39	144	2
BRK	39	192	0
BRK	39	192	1
TAP	39	288	6
TAP	39	288	7
TAP	39	336	0
TAP	39	336	5
TAP	40	0	6
TAP	40	24	7
TAP	40	48	5
TAP	40	72	0
TAP	40	96	4
TAP	40	120	1
STR	40	144	3
SCR	40	144	3	96	48	6
TAP	40	240	3
TAP	40	288	0
TAP	40	300	1
TAP	40	312	2
TAP	40	324	3
TAP	40	336	4
TAP	40	348	5
TAP	40	360	6
TAP	40	372	7
BST	41	0	0
SI_	41	0	0	96	48	4
TAP	41	48	5
TAP	41	96	0
TAP	41	144	6
STR	41	192	7
SI_	41	192	7	96	48	3
TAP	41	240	2
TAP	41	288	7
TAP	41	336	1
STR	42	0	0
SI_	42	0	0	96	48	5
TAP	42	48	5
TAP	42	96	0
TAP	42	144	6
STR	42	192	7
SI_	42	192	7	96	48	2
TAP	42	240	2
TAP	42	288	7
TAP	42	336	1
TAP	43	0	0
HLD	43	0	5	96
HLD	43	96	3	48
HLD	43	144	2	48
HLD	43	192	1	48
HLD	43	240	0	48
HLD	43	288	7	48
TAP	43	336	6
TAP	44	0	1
TAP	44	24	7
TAP	44	48	3
TAP	44	72	5
TAP	44	96	0
TAP	44	120	6
TAP	44	144	2
TAP	44	168	4
TAP	44	192	1
TAP	44	216	7
TAP	44	240	3
TAP	44	264	5
TAP	44	288	0
TAP	44	300	1
TAP	44	312	2
TAP	44	324	3
TAP	44	336	4
TAP	44	348	5
TAP	44	360	6
TAP	44	372	7
BST	45	0	0
SI_	45	0	0	96	48	4
TAP	45	48	5
TAP	45	96	0
TAP	45	144	6
STR	45	192	7
SI_	45	192	7	96	48	3
TAP	45	240	2
TAP	45	288	7
TAP	45	336	1
STR	46	0	0
SI_	46	0	0	96	48	5
TAP	46	48	5
TAP	46	96	0
TAP	46	144	6
STR	46	192	7
SI_	46	192	7	96	48	2
TAP	46	240	2
TAP	46	288	7
TAP	46	336	1
TAP	47	0	0
TAP	47	24	4
TAP	47	48	2
TAP	47	72	6
TAP	47	96	1
TAP	47	120	5
TAP	47	144	3
TAP	47	168	7
TAP	47	192	2
TAP	47	216	6
TAP	47	240	0
TAP	47	264	4
TAP	47	288	3
TAP	47	312	7
TAP	47	336	1
TAP	47	360	5
BST	48	0	0
SCR	48	0	0	96	48	2
BST	48	0	7
SCL	48	0	7	96	48	5
BST	48	96	0
SI_	48	96	0	96	48	4
BST	48	96	7
SI_	48	96	7	96	48	3
BRK	48	192	0
BRK	48	192	7
TAP	48	288	1
TAP	48	288	6
TAP	49	0	2
TAP	49	48	1
TAP	49	96	0
TAP	49	144	6
STR	49	144	7
SI_	49	144	7	96	48	3
STR	49	240	7
SCR	49	240	7	96	96	4
TAP	49	336	7
TAP	50	48	1
TAP	50	96	0
TAP	50	96	7
TAP	50	144	5
TAP	50	168	5
TAP	50	216	2
HLD	50	240	2	96
TAP	51	0	5
TAP	51	48	6
TAP	51	96	7
STR	51	144	0
SI_	51	144	0	96	48	4
TAP	51	144	1
STR	51	240	0
SCR	51	240	0	96	48	3
TAP	51	336	0
TAP	52	0	7
TAP	52	24	6
TAP	52	48	5
TAP	52	72	0
TAP	52	96	1
TAP	52	120	2
TAP	52	144	6
TAP	52	168	5
TAP	52	192	4
TAP	52	216	1
TAP	52	240	2
TAP	52	264	3
BRK	52	288	7
TAP	53	0	2
TAP	53	0	3
TAP	53	48	1
TAP	53	96	0
TAP	53	144	6
STR	53	144	7
SI_	53	144	7	96	48	3
STR	53	240	7
SCR	53	240	7	96	96	4
TAP	53	336	7
TAP	54	48	1
TAP	54	96	0
TAP	54	96	7
TAP	54	144	5
TAP	54	168	5
TAP	54	216	2
HLD	54	240	2	96
TAP	55	0	4
TAP	55	0	5
TAP	55	48	6
TAP	55	96	7
STR	55	144	0
SI_	55	144	0	96	48	4
TAP	55	144	1
STR	55	240	0
SCR	55	240	0	96	48	3
TAP	55	336	0
TAP	56	0	7
TAP	56	24	6
TAP	56	48	5
TAP	56	72	0
TAP	56	96	1
TAP	56	120	2
TAP	56	144	6
TAP	56	168	5
TAP	56	192	4
TAP	56	216	1
TAP	56	240	2
TAP	56	264	3
TAP	56	288	7
TAP	56	312	6
TAP	56	336	5
TAP	56	360	4
TAP	57	0	2
TAP	57	0	3
TAP	57	96	2
TAP	57	96	3
TAP	57	192	1
TAP	57	192	4
TAP	58	0	4
TAP	58	0	5
TAP	58	96	4
TAP	58	96	5
TAP	58	192	3
TAP	58	192	6
BST	58	240	4
SI_	58	240	4	96	48	0
BST	58	240	5
SI_	58	240	5	96	48	0
BRK	58	336	4
BRK	58	336	5
TAP	59	48	1
TAP	59	48	7
STR	59	96	2
SI_	59	96	2	96	48	6
STR	59	144	6
SI_	59	144	6	96	48	2
TAP	59	192	2
TAP	59	240	0
TAP	59	336	3
TAP	59	336	4
TAP	60	48	0
TAP	60	48	6
STR	60	96	5
SI_	60	96	5	96	48	1
STR	60	144	1
SI_	60	144	1	96	48	5
TAP	60	192	5
TAP	60	240	7
TAP	60	288	0
TAP	60	336	1
TAP	60	336	6
BRK	61	0	3
BRK	61	0	4
TAP	61	48	1
TAP	61	72	0
TAP	61	96	1
TAP	61	120	7
TAP	61	144	2
TAP	61	192	3
TAP	61	192	6
TAP	61	240	7
TAP	61	264	0
TAP	61	288	7
TAP	61	312	1
TAP	61	336	6
TAP	62	0	2
TAP	62	0	5
TAP	62	48	0
TAP	62	72	7
TAP	62	96	0
TAP	62	120	6
TAP	62	144	1
TAP	62	192	2
TAP	62	192	5
TAP	62	240	6
TAP	62	264	7
TAP	62	288	6
TAP	62	312	0
TAP	62	336	5
TAP	63	0	1
TAP	63	0	4
TAP	63	48	6
TAP	63	72	2
TAP	63	96	5
TAP	63	120	1
TAP	63	144	4
TAP	63	168	0
TAP	63	192	3
TAP	63	216	7
TAP	63	240	4
TAP	63	264	0
TAP	63	288	5
TAP	63	312	1
TAP	63	336	6
TAP	63	360	2
TAP	64	0	3
TAP	64	0	7
TAP	64	48	2
TAP	64	48	6
TAP	64	96	1
TAP	64	96	5
TAP	64	144	0
TAP	64	144	4
STR	64	288	6
SI_	64	288	6	96	48	3
STR	64	288	7
SI_	64	288	7	96	48	2
TAP	64	336	0
TAP	64	336	5
BRK	65	0	6
BRK	65	0	7
STR	65	96	0
SI_	65	96	0	96	48	5
STR	65	96	1
SI_	65	96	1	96	48	4
TAP	65	144	2
TAP	65	144	7
BRK	65	192	0
BRK	65	192	1
STR	65	288	6
SI_	65	288	6	96	48	3
STR	65	288	7
SI_	65	288	7	96	48	2
TAP	65	336	0
TAP	65	336	5
BRK	66	0	6
BRK	66	0	7
STR	66	96	0
SI_	66	96	0	96	48	5
STR	66	96	1
SI_	66	96	1	96	48	4
TAP	66	144	2
TAP	66	144	7
BRK	66	192	0
BRK	66	192	1
STR	66	288	6
SI_	66	288	6	96	48	3
STR	66	288	7
SI_	66	288	7	96	48	2
TAP	66	336	0
TAP	66	336	5
BRK	67	0	6
BRK	67	0	7
STR	67	96	0
SI_	67	96	0	96	48	5
STR	67	96	1
SI_	67	96	1	96	48	4
TAP	67	144	2
TAP	67	144	7
BRK	67	192	0
BRK	67	192	1
TAP	67	288	2
TAP	67	288	4
TAP	67	336	0
TAP	68	0	3
TAP	68	0	5
TAP	68	48	7
TAP	68	96	2
TAP	68	96	4
TAP	68	144	0
TAP	68	192	3
TAP	68	192	5
TAP	68	240	7
STR	68	288	0
SI_	68	288	0	96	48	4
STR	68	288	1
SI_	68	288	1	96	48	5
TAP	68	336	2
TAP	68	336	7
BRK	69	0	0
BRK	69	0	1
STR	69	96	6
SI_	69	96	6	96	48	2
STR	69	96	7
SI_	69	96	7	96	48	3
TAP	69	144	0
TAP	69	144	5
BRK	69	192	6
BRK	69	192	7
STR	69	288	0
SI_	69	288	0	96	48	4
STR	69	288	1
SI_	69	288	1	96	48	5
TAP	69	336	2
TAP	69	336	7
BRK	70	0	0
BRK	70	0	1
STR	70	96	6
SI_	70	96	6	96	48	2
STR	70	96	7
SI_	70	96	7	96	48	3
TAP	70	144	0
TAP	70	144	5
BRK	70	192	6
BRK	70	192	7
STR	70	288	0
SI_	70	288	0	96	48	4
STR	70	288	1
SI_	70	288	1	96	48	5
TAP	70	336	2
TAP	70	336	7
BRK	71	0	0
BRK	71	0	1
STR	71	96	6
SI_	71	96	6	96	48	2
STR	71	96	7
SI_	71	96	7	96	48	3
TAP	71	144	0
TAP	71	144	5
BRK	71	192	6
BRK	71	192	7
TAP	71	288	0
TAP	71	288	1
TAP	71	336	2
TAP	71	336	7
TAP	72	0	1
TAP	72	24	0
TAP	72	48	2
TAP	72	72	7
TAP	72	96	3
TAP	72	120	6
STR	72	144	4
SCL	72	144	4	96	48	1
TAP	72	240	4
TAP	72	288	7
TAP	72	300	6
TAP	72	312	5
TAP	72	324	4
TAP	72	336	3
TAP	72	348	2
TAP	72	360	1
TAP	72	372	0
BST	73	0	7
SI_	73	0	7	96	48	3
TAP	73	48	5
TAP	73	96	7
TAP	73	144	1
STR	73	192	0
SI_	73	192	0	96	48	4
TAP	73	240	2
TAP	73	288	0
TAP	73	336	6
STR	74	0	7
SI_	74	0	7	96	48	2
TAP	74	48	5
TAP	74	96	7
TAP	74	144	1
STR	74	192	0
SI_	74	192	0	96	48	5
TAP	74	240	2
TAP	74	288	0
TAP	74	336	6
HLD	75	0	2	96
TAP	75	0	7
HLD	75	96	4	48
HLD	75	144	5	48
HLD	75	192	6	48
HLD	75	240	7	48
HLD	75	288	0	48
TAP	75	336	1
TAP	76	0	6
TAP	76	24	0
TAP	76	48	4
TAP	76	72	2
TAP	76	96	7
TAP	76	120	1
TAP	76	144	5
TAP	76	168	3
TAP	76	192	6
TAP	76	216	0
TAP	76	240	4
TAP	76	264	2
TAP	76	288	7
TAP	76	300	6
TAP	76	312	5
TAP	76	324	4
TAP	76	336	3
TAP	76	348	2
TAP	76	360	1
TAP	76	372	0
BST	77	0	7
SI_	77	0	7	96	48	3
TAP	77	48	5
TAP	77	96	7
TAP	77	144	1
STR	77	192	0
SI_	77	192	0	96	48	4
TAP	77	240	2
TAP	77	288	0
TAP	77	336	6
STR	78	0	7
SI_	78	0	7	96	48	2
TAP	78	48	5
TAP	78	96	7
TAP	78	144	1
STR	78	192	0
SI_	78	192	0	96	48	5
TAP	78	240	2
TAP	78	288	0
TAP	78	336	6
TAP	79	0	7
TAP	79	24	3
TAP	79	48	5
TAP	79	72	1
TAP	79	96	6
TAP	79	120	2
TAP	79	144	4
TAP	79	168	0
TAP	79	192	5
TAP	79	216	1
TAP	79	240	7
TAP	79	264	3
TAP	79	288	4
TAP	79	312	0
TAP	79	336	6
TAP	79	360	2
BST	80	0	0
SCR	80	0	0	96	48	2
BST	80	0	7
SCL	80	0	7	96	48	5
BST	80	96	0
SI_	80	96	0	96	48	4
BST	80	96	7
SI_	80	96	7	96	48	3
BRK	80	192	0
BRK	80	192	7
TAP	80	288	1
TAP	80	288	6
TAP	81	0	4
TAP	81	0	6
TAP	81	48	1
TAP	81	48	3
TAP	81	96	6
TAP	81	96	7
STR	81	144	0
SCL	81	144	0	96	48	5
TAP	81	144	1
STR	81	240	0
SCR	81	240	0	96	96	5
TAP	81	336	0
TAP	82	48	6
TAP	82	96	0
TAP	82	96	7
TAP	82	144	2
TAP	82	144	3
TAP	82	168	2
TAP	82	168	3
TAP	82	216	4
TAP	82	216	5
HLD	82	240	4	96
HLD	82	240	5	96
TAP	83	0	1
TAP	83	0	3
TAP	83	48	4
TAP	83	48	6
TAP	83	96	0
TAP	83	96	1
TAP	83	144	6
STR	83	144	7
SCR	83	144	7	96	48	2
STR	83	240	7
SCL	83	240	7	96	48	4
TAP	83	336	7
TAP	84	0	0
TAP	84	24	1
TAP	84	48	2
TAP	84	72	3
TAP	84	72	7
TAP	84	96	6
TAP	84	120	5
TAP	84	144	0
TAP	84	144	4
TAP	84	168	1
TAP	84	192	2
TAP	84	216	3
TAP	84	216	7
TAP	84	240	6
TAP	84	264	5
BRK	84	288	0
BRK	84	288	4
TAP	85	0	4
TAP	85	0	6
TAP	85	48	1
TAP	85	48	3
TAP	85	96	6
TAP	85	96	7
STR	85	144	0
SI_	85	144	0	96	48	4
TAP	85	144	1
STR	85	240	0
SCL	85	240	0	96	96	3
TAP	85	336	0
TAP	86	48	6
TAP	86	96	0
TAP	86	96	7
TAP	86	144	2
TAP	86	144	3
TAP	86	168	2
TAP	86	168	3
TAP	86	216	4
TAP	86	216	5
HLD	86	240	4	96
HLD	86	240	5	96
TAP	87	0	1
TAP	87	0	3
TAP	87	48	4
TAP	87	48	6
TAP	87	96	0
TAP	87	96	1
TAP	87	144	6
STR	87	144	7
SI_	87	144	7	96	48	3
STR	87	240	7
SCL	87	240	7	96	48	4
TAP	87	336	7
BRK	88	0	0
TAP	88	24	1
TAP	88	48	2
TAP	88	72	3
BRK	88	72	7
TAP	88	96	6
TAP	88	120	5
BRK	88	144	0
TAP	88	144	4
TAP	88	168	1
TAP	88	192	2
TAP	88	216	3
BRK	88	216	7
TAP	88	240	6
TAP	88	264	5
BRK	88	288	0
TAP	88	288	4
TAP	88	312	1
TAP	88	336	2
TAP	88	360	3
BST	89	0	0
SCL	89	0	0	96	48	5
BST	89	0	4
SCL	89	0	4	96	48	1
BST	89	96	0
SI_	89	96	0	96	48	3
BST	89	96	4
SI_	89	96	4	96	48	7
BRK	89	192	0
BRK	89	192	4
BST	89	288	0
SCL	89	288	0	96	1152	1
BST	89	288	1
SCR	89	288	1	96	1152	0

T_REC_TAP	680
T_REC_BRK	81
T_REC_XTP	0
T_REC_HLD	22
T_REC_XHO	0
T_REC_STR	106
T_REC_BST	30
T_REC_XST	0
T_REC_TTP	0
T_REC_THO	0
T_REC_SLD	136
T_REC_ALL	1055
T_NUM_TAP	786
T_NUM_BRK	111
T_NUM_HLD	22
T_NUM_SLD	136
T_NUM_ALL	1055
T_JUDGE_TAP	897
T_JUDGE_HLD	34
T_JUDGE_SLD	136
T_JUDGE_ALL	1067
TTM_EACHPAIRS	222
TTM_SCR_TAP	393000
TTM_SCR_BRK	288600
TTM_SCR_HLD	22000
TTM_SCR_SLD	204000
TTM_SCR_ALL	907600
TTM_SCR_S	869650
TTM_SCR_SS	896500
TTM_RAT_ACV	10123

