VERSION	0.00.00	1.03.00
FES_MODE	0
BPM_DEF	176.000	176.000	176.000	176.000
MET_DEF	4	4
RESOLUTION	384
CLK_DEF	384
COMPATIBLE_CODE	MA2

BPM	0	0	176.000
MET	0	0	4	4

TAP	1	0	3
TAP	1	96	4
TAP	1	192	2
TAP	1	192	5
TAP	2	0	3
TAP	2	96	4
TAP	2	192	2
TAP	2	192	5
TAP	3	0	5
TAP	3	96	4
TAP	3	192	3
TAP	3	192	6
TAP	4	0	5
TAP	4	96	4
TAP	4	192	3
TAP	4	192	6
TAP	5	0	2
TAP	5	96	3
TAP	5	192	1
TAP	5	192	4
TAP	6	0	2
TAP	6	96	3
TAP	6	192	1
TAP	6	192	4
TAP	7	0	7
TAP	7	96	0
TAP	7	192	1
TAP	7	192	6
STR	8	0	0
SI_	8	0	0	96	96	4
STR	8	0	7
SI_	8	0	7	96	96	3
BRK	8	288	1
BRK	8	288	6
TAP	9	0	0
TAP	9	48	7
TAP	9	144	1
TAP	9	144	5
TAP	9	240	2
TAP	9	240	6
TAP	9	336	0
TAP	9	336	4
TAP	10	48	7
TAP	10	96	0
TAP	10	96	6
TAP	10	192	0
TAP	10	240	1
TAP	10	240	7
TAP	11	0	7
TAP	11	48	0
TAP	11	144	2
TAP	11	144	6
TAP	11	240	1
TAP	11	240	5
TAP	11	336	3
TAP	11	336	7
HLD	12	0	7	96
HLD	12	96	0	96
HLD	12	192	1	96
TAP	12	288	2
TAP	13	0	3
TAP	13	48	4
TAP	13	144	2
TAP	13	144	6
TAP	13	240	1
TAP	13	240	5
TAP	13	336	3
TAP	13	336	7
TAP	14	48	4
TAP	14	96	3
TAP	14	96	5
TAP	14	192	3
TAP	14	240	2
TAP	14	240	4
TAP	15	0	4
TAP	15	48	3
TAP	15	144	1
TAP	15	144	5
TAP	15	240	2
TAP	15	240	6
STR	15	336	0
SXR	15	336	0	96	240	5
TAP	15	336	4
TAP	17	0	4
TAP	17	0	6
TAP	17	96	5
TAP	17	192	1
TAP	17	192	3
TAP	17	288	2
TAP	18	0	1
TAP	18	48	0
TAP	18	96	1
TAP	18	192	6
TAP	18	240	7
TAP	18	288	6
BST	19	0	1
SI_	19	0	1	96	48	4
BST	19	96	0
SI_	19	96	0	96	48	5
BRK	19	192	1
TAP	20	0	2
TAP	20	0	7
TAP	20	96	0
TAP	20	96	5
TAP	20	192	7
TAP	20	240	7
TAP	21	0	1
TAP	21	0	3
TAP	21	96	2
TAP	21	192	4
TAP	21	192	6
TAP	21	288	5
TAP	22	0	6
TAP	22	48	7
TAP	22	96	6
TAP	22	192	1
TAP	22	240	0
TAP	22	288	1
BST	23	0	6
SI_	23	0	6	96	48	3
BST	23	96	7
SI_	23	96	7	96	48	2
BRK	23	192	6
TAP	24	0	0
TAP	24	0	5
TAP	24	96	2
TAP	24	96	7
TAP	24	192	0
TAP	24	240	0
HLD	25	0	6	96
TAP	25	96	7
HLD	25	192	1	96
TAP	25	288	0
TAP	26	0	7
STR	26	48	7
SI_	26	48	7	96	48	3
TAP	26	144	0
TAP	26	240	1
HLD	26	336	1	240
TAP	26	336	7
TAP	27	48	2
TAP	27	96	2
TAP	27	192	7
TAP	27	240	7
TAP	27	336	0
HLD	27	336	6	240
TAP	28	48	5
TAP	28	96	5
TAP	28	192	0
TAP	28	240	0
TAP	28	288	1
TAP	28	288	7
HLD	29	0	2	96
TAP	29	96	3
HLD	29	192	5	96
TAP	29	288	4
TAP	30	0	3
TAP	30	48	4
TAP	30	144	2
TAP	30	144	5
STR	30	240	3
SCR	30	240	3	96	336	7
STR	30	240	4
SCL	30	240	4	96	336	0
TAP	30	288	3
TAP	30	288	4
TAP	32	0	1
TAP	32	48	6
TAP	32	96	0
TAP	32	144	7
STR	32	288	0
SI_	32	288	0	96	48	4
TAP	33	0	6
STR	33	96	6
SI_	33	96	6	96	48	3
BRK	33	192	0
STR	33	288	0
SI_	33	288	0	96	48	4
TAP	34	0	6
STR	34	96	6
SI_	34	96	6	96	48	3
BRK	34	192	0
STR	34	288	0
SI_	34	288	0	96	48	4
TAP	35	0	6
STR	35	96	6
SI_	35	96	6	96	48	3
BRK	35	192	0
TAP	35	288	0
TAP	36	0	6
TAP	36	48	7
TAP	36	96	6
HLD	36	144	0	96
TAP	36	240	7
STR	36	288	7
SI_	36	288	7	96	48	3
TAP	37	0	1
STR	37	96	1
SI_	37	96	1	96	48	4
BRK	37	192	7
STR	37	288	7
SI_	37	288	7	96	48	3
TAP	38	0	1
STR	38	96	1
SI_	38	96	1	96	48	4
BRK	38	192	7
STR	38	288	7
SI_	38	288	7	96	48	3
TAP	39	0	1
STR	39	96	1
SI_	39	96	1	96	48	4
BRK	39	192	7
TAP	39	288	7
TAP	40	0	1
TAP	40	48	0
TAP	40	96	1
HLD	40	144	7	96
TAP	40	240	0
HLD	41	0	1	96
TAP	41	0	7
HLD	41	96	2	96
TAP	41	192	3
TAP	41	240	3
TAP	41	288	2
TAP	41	288	4
TAP	42	0	3
HLD	42	0	5	96
HLD	42	96	6	96
TAP	42	192	7
TAP	42	240	7
TAP	42	288	0
TAP	42	288	6
TAP	43	0	6
TAP	43	48	7
TAP	43	96	6
TAP	43	192	1
TAP	43	240	0
TAP	43	288	1
STR	43	336	7
SUR	43	336	7	96	144	0
TAP	44	288	0
TAP	44	288	7
TAP	45	0	0
HLD	45	0	6	96
HLD	45	96	5	96
TAP	45	192	4
TAP	45	240	4
TAP	45	288	3
TAP	45	288	5
HLD	46	0	2	96
TAP	46	0	4
HLD	46	96	1	96
TAP	46	192	0
TAP	46	240	0
TAP	46	288	1
TAP	46	288	7
STR	47	0	2
SCL	47	0	2	96	192	7
STR	47	0	6
SCL	47	0	6	96	192	3
BRK	48	0	2
BRK	48	0	6
BRK	48	96	0
BRK	48	96	4
BRK	48	192	2
BRK	48	192	6
BRK	48	288	0
BRK	48	288	7
TAP	49	0	7
TAP	49	48	0
TAP	49	144	2
TAP	49	144	6
TAP	49	240	1
TAP	49	240	5
TAP	49	336	3
TAP	49	336	7
TAP	50	48	0
TAP	50	96	1
TAP	50	96	7
TAP	50	192	7
TAP	50	240	0
TAP	50	240	6
TAP	51	0	0
TAP	51	48	7
TAP	51	144	1
TAP	51	144	5
TAP	51	240	2
TAP	51	240	6
STR	51	336	0
SXL	51	336	0	96	144	2
STR	51	336	4
SXL	51	336	4	96	144	6
TAP	52	288	1
TAP	52	288	5
TAP	53	0	4
TAP	53	48	3
TAP	53	144	1
TAP	53	144	5
TAP	53	240	2
TAP	53	240	6
TAP	53	336	0
TAP	53	336	4
TAP	54	48	3
TAP	54	96	2
TAP	54	96	4
TAP	54	192	4
TAP	54	240	3
TAP	54	240	5
TAP	55	0	3
TAP	55	48	4
TAP	55	144	2
TAP	55	144	6
TAP	55	240	1
TAP	55	240	5
STR	55	336	3
SXR	55	336	3	96	144	1
STR	55	336	7
SXR	55	336	7	96	144	5
TAP	56	288	2
TAP	56	288	6
TAP	57	0	4
TAP	57	0	5
TAP	57	96	4
TAP	57	96	5
TAP	57	192	3
TAP	57	192	6
TAP	58	0	2
TAP	58	0	3
TAP	58	96	2
TAP	58	96	3
TAP	58	192	1
TAP	58	192	4
TAP	58	336	0
HLD	58	336	6	240
TAP	59	48	5
TAP	59	96	5
TAP	59	192	0
TAP	59	240	0
HLD	59	336	1	240
TAP	59	336	7
TAP	60	48	2
TAP	60	96	2
TAP	60	192	7
TAP	60	240	7
TAP	60	288	0
TAP	60	288	6
HLD	61	0	5	96
TAP	61	96	4
HLD	61	192	2	96
TAP	61	288	3
TAP	62	0	4
TAP	62	48	3
TAP	62	144	2
TAP	62	144	5
STR	62	240	3
SXR	62	240	3	96	336	0
STR	62	240	4
SXL	62	240	4	96	336	7
TAP	62	288	3
TAP	62	288	4
TAP	64	0	6
TAP	64	48	1
TAP	64	96	7
TAP	64	144	0
STR	64	288	7
SI_	64	288	7	96	48	3
TAP	65	0	0
STR	65	96	1
SI_	65	96	1	96	48	4
BRK	65	192	0
STR	65	288	7
SI_	65	288	7	96	48	3
TAP	66	0	0
STR	66	96	1
SI_	66	96	1	96	48	4
BRK	66	192	0
STR	66	288	7
SI_	66	288	7	96	48	3
TAP	67	0	0
STR	67	96	1
SI_	67	96	1	96	48	4
BRK	67	192	0
TAP	67	288	7
TAP	68	0	1
TAP	68	48	0
TAP	68	96	1
HLD	68	144	7	96
TAP	68	240	0
STR	68	288	0
SI_	68	288	0	96	48	4
TAP	69	0	7
STR	69	96	6
SI_	69	96	6	96	48	3
BRK	69	192	7
STR	69	288	0
SI_	69	288	0	96	48	4
TAP	70	0	7
STR	70	96	6
SI_	70	96	6	96	48	3
BRK	70	192	7
STR	70	288	0
SI_	70	288	0	96	48	4
TAP	71	0	7
STR	71	96	6
SI_	71	96	6	96	48	3
BRK	71	192	7
TAP	71	288	0
TAP	72	0	6
TAP	72	48	7
TAP	72	96	6
HLD	72	144	0	96
TAP	72	240	7
TAP	73	0	0
HLD	73	0	6	96
HLD	73	96	5	96
TAP	73	192	4
TAP	73	240	4
TAP	73	288	3
TAP	73	288	5
HLD	74	0	2	96
TAP	74	0	4
HLD	74	96	1	96
TAP	74	192	0
TAP	74	240	0
TAP	74	288	1
TAP	74	288	7
TAP	75	0	1
TAP	75	48	0
TAP	75	96	1
TAP	75	192	6
TAP	75	240	7
TAP	75	288	6
STR	75	336	0
SUL	75	336	0	96	144	7
TAP	76	288	0
TAP	76	288	7
HLD	77	0	1	96
TAP	77	0	7
HLD	77	96	2	96
TAP	77	192	3
TAP	77	240	3
TAP	77	288	2
TAP	77	288	4
TAP	78	0	3
HLD	78	0	5	96
HLD	78	96	6	96
TAP	78	192	7
TAP	78	240	7
TAP	78	288	0
TAP	78	288	6
STR	79	0	1
SXL	79	0	1	96	192	2
STR	79	0	5
SXL	79	0	5	96	192	6
BRK	80	0	1
BRK	80	0	5
BRK	80	96	3
BRK	80	96	7
BRK	80	192	1
BRK	80	192	5
BRK	80	288	0
BRK	80	288	7
TAP	81	0	7
TAP	81	48	0
TAP	81	144	2
TAP	81	144	6
TAP	81	240	1
TAP	81	240	5
TAP	81	336	3
TAP	81	336	7
STR	82	48	0
SCR	82	48	0	96	48	3
TAP	82	96	0
STR	82	192	7
SCL	82	192	7	96	48	4
TAP	82	240	7
TAP	83	0	0
TAP	83	48	7
TAP	83	144	1
TAP	83	144	5
TAP	83	240	2
TAP	83	240	6
TAP	83	336	0
TAP	83	336	4
STR	84	0	0
SI_	84	0	0	96	48	4
STR	84	96	6
SI_	84	96	6	96	48	2
STR	84	192	1
SI_	84	192	1	96	48	5
TAP	84	288	7
TAP	85	0	4
TAP	85	48	3
TAP	85	144	1
TAP	85	144	5
TAP	85	240	2
TAP	85	240	6
TAP	85	336	0
TAP	85	336	4
STR	86	48	3
SCL	86	48	3	96	48	0
TAP	86	96	3
STR	86	192	4
SCR	86	192	4	96	48	7
TAP	86	240	4
TAP	87	0	3
TAP	87	48	4
TAP	87	144	2
TAP	87	144	6
TAP	87	240	1
TAP	87	240	5
TAP	87	336	3
STR	87	336	7
SXL	87	336	7	96	240	2
BRK	89	0	1
BRK	89	0	3
BRK	89	96	4
BRK	89	96	6
BRK	89	192	0
BRK	89	192	5
BST	89	288	3
SCR	89	288	3	96	1152	6
BST	89	288	7
SCR	89	288	7	96	1152	2

T_REC_TAP	341
T_REC_BRK	38
T_REC_XTP	0
T_REC_HLD	33
T_REC_XHO	0
T_REC_STR	50
T_REC_BST	6
T_REC_XST	0
T_REC_TTP	0
T_REC_THO	0
T_REC_SLD	56
T_REC_ALL	524
T_NUM_TAP	391
T_NUM_BRK	44
T_NUM_HLD	33
T_NUM_SLD	56
T_NUM_ALL	524
T_JUDGE_TAP	435
T_JUDGE_HLD	78
T_JUDGE_SLD	56
T_JUDGE_ALL	569
TTM_EACHPAIRS	113
TTM_SCR_TAP	195500
TTM_SCR_BRK	114400
TTM_SCR_HLD	33000
TTM_SCR_SLD	84000
TTM_SCR_ALL	426900
TTM_SCR_S	409850
TTM_SCR_SS	422500
TTM_RAT_ACV	10104

