VERSION	0.00.00	1.03.00
FES_MODE	0
BPM_DEF	176.000	176.000	176.000	176.000
MET_DEF	4	4
RESOLUTION	384
CLK_DEF	384
COMPATIBLE_CODE	MA2

BPM	0	0	176.000
MET	0	0	4	4

TAP	1	0	3
TAP	1	96	4
TAP	2	0	3
TAP	2	96	4
TAP	3	0	3
TAP	3	96	4
TAP	4	0	3
TAP	4	96	4
TAP	5	0	3
TAP	5	96	4
TAP	6	0	3
TAP	6	96	4
TAP	7	0	3
TAP	7	96	4
TAP	8	0	3
TAP	8	0	4
BRK	8	288	1
BRK	8	288	6
TAP	9	0	2
TAP	9	96	3
TAP	9	192	1
TAP	9	192	4
TAP	10	0	5
TAP	10	96	4
TAP	10	192	3
TAP	10	192	6
TAP	11	0	0
TAP	11	96	0
TAP	11	192	7
TAP	11	288	7
TAP	12	0	0
TAP	12	96	7
TAP	12	192	1
TAP	12	192	6
TAP	13	0	5
TAP	13	96	4
TAP	13	192	3
TAP	13	192	6
TAP	14	0	2
TAP	14	96	3
TAP	14	192	1
TAP	14	192	4
TAP	15	0	7
TAP	15	96	7
TAP	15	192	0
TAP	15	288	0
STR	16	0	0
SI_	16	0	0	96	192	3
STR	16	0	7
SI_	16	0	7	96	192	4
TAP	17	0	5
TAP	17	96	5
TAP	17	192	4
TAP	17	192	6
TAP	18	0	2
TAP	18	96	2
TAP	18	192	1
TAP	18	192	3
TAP	19	0	7
TAP	19	96	7
BRK	19	192	7
TAP	20	0	0
STR	20	0	7
SI_	20	0	7	96	192	3
TAP	21	0	2
TAP	21	96	2
TAP	21	192	1
TAP	21	192	3
TAP	22	0	5
TAP	22	96	5
TAP	22	192	4
TAP	22	192	6
TAP	23	0	0
TAP	23	96	0
BRK	23	192	0
STR	24	0	0
SI_	24	0	0	96	192	4
TAP	24	0	7
TAP	25	0	5
TAP	25	96	4
TAP	25	192	3
TAP	25	192	6
TAP	25	288	3
TAP	25	288	6
TAP	26	0	2
TAP	26	96	3
TAP	26	192	1
TAP	26	192	4
TAP	27	0	2
TAP	27	96	3
TAP	27	192	1
TAP	27	192	4
TAP	27	288	1
TAP	27	288	4
TAP	28	0	5
TAP	28	96	4
TAP	28	192	3
TAP	28	192	6
HLD	29	0	2	96
HLD	29	0	3	96
HLD	29	192	4	96
HLD	29	192	5	96
HLD	30	0	2	96
HLD	30	0	3	96
HLD	30	192	4	96
HLD	30	192	5	96
STR	31	0	3
SXR	31	0	3	96	288	0
STR	31	0	4
SXL	31	0	4	96	288	7
TAP	32	288	2
TAP	33	0	2
TAP	33	0	3
TAP	33	96	0
TAP	33	96	7
TAP	33	192	0
TAP	33	192	7
TAP	33	288	5
TAP	34	0	4
TAP	34	0	5
TAP	34	96	0
TAP	34	96	7
TAP	34	192	0
TAP	34	192	7
TAP	34	288	2
TAP	35	0	2
TAP	35	0	3
TAP	35	96	0
TAP	35	96	7
TAP	35	192	0
TAP	35	192	7
TAP	35	288	1
TAP	36	0	2
TAP	36	96	3
TAP	36	192	4
TAP	36	288	5
TAP	37	0	4
TAP	37	0	5
TAP	37	96	0
TAP	37	96	7
TAP	37	192	0
TAP	37	192	7
TAP	37	288	2
TAP	38	0	2
TAP	38	0	3
TAP	38	96	0
TAP	38	96	7
TAP	38	192	0
TAP	38	192	7
TAP	38	288	5
TAP	39	0	4
TAP	39	0	5
TAP	39	96	0
TAP	39	96	7
TAP	39	192	0
TAP	39	192	7
TAP	39	288	6
TAP	40	0	5
TAP	40	96	4
TAP	40	192	2
TAP	40	192	3
STR	41	0	0
SI_	41	0	0	96	96	2
STR	41	192	7
SI_	41	192	7	96	96	5
STR	42	0	0
SI_	42	0	0	96	96	3
STR	42	192	7
SI_	42	192	7	96	96	4
TAP	43	0	2
TAP	43	96	1
TAP	43	192	0
TAP	43	288	7
HLD	44	0	6	96
HLD	44	0	7	96
HLD	44	192	0	96
HLD	44	192	1	96
STR	45	0	7
SI_	45	0	7	96	96	5
STR	45	192	0
SI_	45	192	0	96	96	2
STR	46	0	7
SI_	46	0	7	96	96	4
STR	46	192	0
SI_	46	192	0	96	96	3
HLD	47	0	5	96
HLD	47	96	4	96
HLD	47	192	3	96
TAP	47	288	2
TAP	48	0	0
TAP	48	0	7
TAP	48	96	1
TAP	48	96	6
BRK	48	192	2
BRK	48	192	5
HLD	49	0	2	96
TAP	49	96	3
HLD	49	192	5	96
TAP	49	288	4
HLD	50	0	1	96
TAP	50	96	0
HLD	50	192	6	96
TAP	50	288	7
HLD	51	0	2	96
TAP	51	96	3
HLD	51	192	5	96
TAP	51	288	4
HLD	52	0	1	288
HLD	52	0	6	288
HLD	53	0	5	96
TAP	53	96	4
HLD	53	192	2	96
TAP	53	288	3
HLD	54	0	6	96
TAP	54	96	7
HLD	54	192	1	96
TAP	54	288	0
HLD	55	0	5	96
TAP	55	96	4
HLD	55	192	2	96
TAP	55	288	3
STR	56	0	0
SCR	56	0	0	96	192	3
STR	56	0	7
SCL	56	0	7	96	192	4
TAP	57	0	3
TAP	57	96	4
TAP	58	0	3
TAP	58	96	4
TAP	58	240	0
TAP	58	240	7
BRK	58	336	0
BRK	58	336	7
TAP	59	96	1
TAP	59	192	2
TAP	59	288	3
TAP	60	0	6
TAP	60	96	5
TAP	60	192	4
TAP	60	288	3
TAP	60	288	4
HLD	61	0	1	96
HLD	61	0	3	96
HLD	61	192	4	96
HLD	61	192	6	96
HLD	62	0	1	96
HLD	62	0	3	96
HLD	62	192	4	96
HLD	62	192	6	96
STR	63	0	3
SXR	63	0	3	96	288	0
STR	63	0	4
SXL	63	0	4	96	288	7
TAP	64	288	5
TAP	65	0	4
TAP	65	0	6
TAP	65	96	0
TAP	65	96	7
TAP	65	192	0
TAP	65	192	7
TAP	65	288	2
TAP	66	0	1
TAP	66	0	3
TAP	66	96	0
TAP	66	96	7
TAP	66	192	0
TAP	66	192	7
TAP	66	288	5
TAP	67	0	4
TAP	67	0	6
TAP	67	96	0
TAP	67	96	7
TAP	67	192	0
TAP	67	192	7
TAP	67	288	6
TAP	68	0	5
TAP	68	96	4
TAP	68	192	3
TAP	68	288	2
TAP	69	0	1
TAP	69	0	3
TAP	69	96	0
TAP	69	96	7
TAP	69	192	0
TAP	69	192	7
TAP	69	288	5
TAP	70	0	4
TAP	70	0	6
TAP	70	96	0
TAP	70	96	7
TAP	70	192	0
TAP	70	192	7
TAP	70	288	2
TAP	71	0	1
TAP	71	0	3
TAP	71	96	0
TAP	71	96	7
TAP	71	192	0
TAP	71	192	7
TAP	71	288	1
TAP	72	0	2
TAP	72	96	3
TAP	72	192	4
TAP	72	192	5
STR	73	0	4
SI_	73	0	4	96	96	6
STR	73	192	3
SI_	73	192	3	96	96	1
STR	74	0	4
SI_	74	0	4	96	96	7
STR	74	192	3
SI_	74	192	3	96	96	0
TAP	75	0	6
TAP	75	96	5
TAP	75	192	4
TAP	75	288	3
HLD	76	0	0	96
HLD	76	0	1	96
HLD	76	192	6	96
HLD	76	192	7	96
STR	77	0	3
SI_	77	0	3	96	96	1
STR	77	192	4
SI_	77	192	4	96	96	6
STR	78	0	3
SI_	78	0	3	96	96	0
STR	78	192	4
SI_	78	192	4	96	96	7
HLD	79	0	1	96
HLD	79	96	0	96
HLD	79	192	7	96
TAP	79	288	6
TAP	80	0	3
TAP	80	0	4
TAP	80	96	2
TAP	80	96	5
BRK	80	192	1
BRK	80	192	6
TAP	81	0	3
TAP	81	96	2
TAP	81	192	1
TAP	81	192	4
TAP	81	288	1
TAP	81	288	4
TAP	82	0	0
TAP	82	96	7
TAP	82	192	6
TAP	82	192	7
TAP	83	0	4
TAP	83	96	5
TAP	83	192	3
TAP	83	192	6
TAP	83	288	3
TAP	83	288	6
TAP	84	0	7
TAP	84	96	0
TAP	84	192	0
TAP	84	192	1
TAP	85	0	7
TAP	85	96	6
TAP	85	192	0
TAP	85	192	5
TAP	85	288	0
TAP	85	288	5
TAP	86	0	4
TAP	86	96	3
TAP	86	192	2
TAP	86	192	3
TAP	87	0	0
TAP	87	96	1
TAP	87	192	2
TAP	87	192	7
TAP	87	288	2
TAP	87	288	7
HLD	88	0	3	96
HLD	88	0	6	96
HLD	88	192	1	96
HLD	88	192	4	96
TAP	89	0	0
TAP	89	0	7
TAP	89	96	0
TAP	89	96	7
BRK	89	192	0
BRK	89	192	7
HLD	89	288	1	1248
HLD	89	288	6	1248

T_REC_TAP	272
T_REC_BRK	12
T_REC_XTP	0
T_REC_HLD	50
T_REC_XHO	0
T_REC_STR	26
T_REC_BST	0
T_REC_XST	0
T_REC_TTP	0
T_REC_THO	0
T_REC_SLD	26
T_REC_ALL	386
T_NUM_TAP	298
T_NUM_BRK	12
T_NUM_HLD	50
T_NUM_SLD	26
T_NUM_ALL	386
T_JUDGE_TAP	310
T_JUDGE_HLD	156
T_JUDGE_SLD	26
T_JUDGE_ALL	492
TTM_EACHPAIRS	100
TTM_SCR_TAP	149000
TTM_SCR_BRK	31200
TTM_SCR_HLD	50000
TTM_SCR_SLD	39000
TTM_SCR_ALL	269200
TTM_SCR_S	260000
TTM_SCR_SS	268000
TTM_RAT_ACV	10044

