VERSION	0.00.00	1.03.00
FES_MODE	0
BPM_DEF	176.000	176.000	176.000	176.000
MET_DEF	4	4
RESOLUTION	384
CLK_DEF	384
COMPATIBLE_CODE	MA2

BPM	0	0	176.000
MET	0	0	4	4

TAP	5	192	0
TAP	5	192	7
TAP	6	192	0
TAP	6	192	7
TAP	7	192	0
TAP	7	192	7
TAP	9	0	0
TAP	9	96	0
TAP	9	192	0
TAP	10	0	1
TAP	10	96	1
TAP	10	192	1
TAP	11	0	2
TAP	11	96	2
TAP	11	192	2
HLD	12	0	3	192
TAP	13	0	4
TAP	13	96	4
TAP	13	192	4
TAP	14	0	5
TAP	14	96	5
TAP	14	192	5
TAP	15	0	6
TAP	15	96	6
TAP	15	192	6
HLD	16	0	7	192
TAP	17	0	0
TAP	17	0	1
TAP	17	192	0
TAP	17	192	1
TAP	18	0	7
TAP	18	96	0
TAP	18	192	7
TAP	19	0	0
TAP	19	96	0
BRK	19	192	0
TAP	20	0	6
TAP	20	96	6
TAP	20	192	6
TAP	21	0	6
TAP	21	0	7
TAP	21	192	6
TAP	21	192	7
TAP	22	0	0
TAP	22	96	7
TAP	22	192	0
TAP	23	0	7
TAP	23	96	7
BRK	23	192	7
TAP	24	0	1
TAP	24	96	1
TAP	24	192	1
TAP	25	0	2
TAP	25	192	2
TAP	26	0	3
TAP	26	192	3
TAP	27	0	5
TAP	27	96	4
TAP	27	192	5
TAP	28	0	2
TAP	28	96	3
TAP	28	192	2
TAP	29	0	4
TAP	29	192	4
TAP	30	0	5
TAP	30	192	5
STR	31	0	6
SI_	31	0	6	96	288	2
TAP	33	0	0
TAP	33	0	1
TAP	33	192	0
TAP	33	192	1
TAP	34	0	6
TAP	34	0	7
TAP	34	192	6
TAP	34	192	7
TAP	35	0	0
TAP	35	0	1
TAP	35	192	0
TAP	35	192	1
TAP	36	0	6
TAP	36	96	7
TAP	36	192	6
TAP	37	0	6
TAP	37	0	7
TAP	37	192	6
TAP	37	192	7
TAP	38	0	0
TAP	38	0	1
TAP	38	192	0
TAP	38	192	1
TAP	39	0	6
TAP	39	0	7
TAP	39	192	6
TAP	39	192	7
TAP	40	0	1
TAP	40	96	0
TAP	40	192	1
TAP	41	0	2
TAP	41	192	2
TAP	42	0	3
TAP	42	192	3
TAP	43	0	4
TAP	43	0	5
TAP	43	96	4
TAP	43	96	5
TAP	43	192	4
TAP	43	192	5
HLD	44	0	3	192
HLD	44	0	6	192
TAP	45	0	6
TAP	45	96	6
TAP	45	192	6
TAP	46	0	7
TAP	46	96	7
TAP	46	192	7
TAP	47	0	0
TAP	47	96	0
TAP	47	192	7
TAP	47	288	7
TAP	48	0	0
TAP	48	96	0
BRK	48	192	0
BRK	48	192	7
TAP	49	0	7
TAP	49	96	7
TAP	49	192	7
TAP	50	0	6
TAP	50	96	6
TAP	50	192	6
TAP	51	0	5
TAP	51	96	5
TAP	51	192	5
HLD	52	0	4	192
TAP	53	0	3
TAP	53	96	3
TAP	53	192	3
TAP	54	0	2
TAP	54	96	2
TAP	54	192	2
TAP	55	0	1
TAP	55	96	1
TAP	55	192	1
HLD	56	0	0	192
TAP	57	0	7
TAP	57	96	7
TAP	57	192	0
TAP	57	192	7
TAP	58	0	0
TAP	58	96	0
TAP	58	192	0
TAP	58	192	7
TAP	59	0	6
TAP	59	96	7
TAP	59	192	6
TAP	60	0	1
TAP	60	96	0
TAP	60	192	1
TAP	61	0	2
TAP	61	96	2
TAP	61	192	2
TAP	62	0	3
TAP	62	96	3
TAP	62	192	3
STR	63	0	4
SI_	63	0	4	96	288	7
TAP	65	0	6
TAP	65	0	7
TAP	65	192	6
TAP	65	192	7
TAP	66	0	0
TAP	66	0	1
TAP	66	192	0
TAP	66	192	1
TAP	67	0	6
TAP	67	0	7
TAP	67	192	6
TAP	67	192	7
TAP	68	0	1
TAP	68	96	0
TAP	68	192	1
TAP	69	0	0
TAP	69	0	1
TAP	69	192	0
TAP	69	192	1
TAP	70	0	6
TAP	70	0	7
TAP	70	192	6
TAP	70	192	7
TAP	71	0	0
TAP	71	0	1
TAP	71	192	0
TAP	71	192	1
TAP	72	0	6
TAP	72	96	7
TAP	72	192	6
TAP	73	0	5
TAP	73	192	5
TAP	74	0	4
TAP	74	192	4
TAP	75	0	2
TAP	75	0	3
TAP	75	96	2
TAP	75	96	3
TAP	75	192	2
TAP	75	192	3
HLD	76	0	1	192
HLD	76	0	4	192
TAP	77	0	1
TAP	77	96	1
TAP	77	192	1
TAP	78	0	0
TAP	78	96	0
TAP	78	192	0
TAP	79	0	7
TAP	79	96	7
TAP	79	192	0
TAP	79	288	0
TAP	80	0	7
TAP	80	96	7
BRK	80	192	0
BRK	80	192	7
TAP	81	0	0
TAP	81	96	0
TAP	81	192	0
TAP	82	0	1
TAP	82	96	1
TAP	82	192	0
TAP	82	192	1
TAP	83	0	2
TAP	83	96	2
TAP	83	192	2
HLD	84	0	3	192
HLD	84	0	4	192
TAP	85	0	4
TAP	85	96	4
TAP	85	192	4
TAP	86	0	5
TAP	86	96	5
TAP	86	192	4
TAP	86	192	5
TAP	87	0	6
TAP	87	96	6
TAP	87	192	6
HLD	88	0	0	192
HLD	88	0	7	192
TAP	89	0	0
TAP	89	0	7
TAP	89	96	0
TAP	89	96	7
TAP	89	192	0
TAP	89	192	7
BRK	89	288	1
BRK	89	288	6

T_REC_TAP	230
T_REC_BRK	8
T_REC_XTP	0
T_REC_HLD	12
T_REC_XHO	0
T_REC_STR	2
T_REC_BST	0
T_REC_XST	0
T_REC_TTP	0
T_REC_THO	0
T_REC_SLD	2
T_REC_ALL	254
T_NUM_TAP	232
T_NUM_BRK	8
T_NUM_HLD	12
T_NUM_SLD	2
T_NUM_ALL	254
T_JUDGE_TAP	240
T_JUDGE_HLD	48
T_JUDGE_SLD	2
T_JUDGE_ALL	290
TTM_EACHPAIRS	51
TTM_SCR_TAP	116000
TTM_SCR_BRK	20800
TTM_SCR_HLD	12000
TTM_SCR_SLD	3000
TTM_SCR_ALL	151800
TTM_SCR_S	146500
TTM_SCR_SS	151000
TTM_RAT_ACV	10052

