VERSION	0.00.00	1.03.00
FES_MODE	0
BPM_DEF	135.000	135.000	135.000	135.000
MET_DEF	4	4
RESOLUTION	384
CLK_DEF	384
COMPATIBLE_CODE	MA2

BPM	0	0	135.000
MET	0	0	4	4

BRK	1	192	0
BRK	1	288	7
STR	2	0	3
SUR	2	0	3	96	96	4
STR	2	96	4
SCR	2	96	4	96	96	0
STR	2	192	0
SCR	2	192	0	96	48	3
STR	3	0	4
SUL	3	0	4	96	96	3
STR	3	96	3
SCL	3	96	3	96	96	7
STR	3	192	7
SCL	3	192	7	96	48	4
STR	4	0	3
SUR	4	0	3	96	96	4
STR	4	96	4
SCR	4	96	4	96	96	0
STR	4	192	0
SCR	4	192	0	96	48	3
TAP	5	0	3
TAP	5	0	4
BRK	5	192	7
BRK	5	288	0
STR	6	0	7
SI_	6	0	7	96	48	5
TAP	6	48	7
STR	6	96	3
SI_	6	96	3	96	48	1
TAP	6	144	3
STR	6	192	6
SI_	6	192	6	96	48	4
TAP	6	240	6
STR	6	288	2
SI_	6	288	2	96	48	0
TAP	6	336	2
STR	7	0	5
SI_	7	0	5	96	48	3
TAP	7	48	5
STR	7	96	1
SI_	7	96	1	96	48	7
TAP	7	144	1
STR	7	192	4
SI_	7	192	4	96	48	0
TAP	7	240	4
TAP	7	288	3
TAP	7	336	3
TAP	8	0	1
TAP	8	24	0
TAP	8	48	2
TAP	8	72	7
TAP	8	96	3
TAP	8	120	6
TAP	8	144	4
TAP	8	168	5
TAP	8	192	2
TAP	8	216	3
TAP	8	240	1
TAP	8	264	4
TAP	8	288	0
TAP	8	312	5
TAP	8	336	7
TAP	8	360	6
TAP	9	0	0
TAP	9	12	1
TAP	9	24	2
TAP	9	36	3
TAP	9	48	4
TAP	9	60	5
TAP	9	72	6
TAP	9	84	7
TAP	9	96	0
TAP	9	108	1
TAP	9	120	2
TAP	9	132	3
TAP	9	144	4
TAP	9	156	5
TAP	9	168	6
TAP	9	180	7
TAP	9	192	0
TAP	9	204	1
TAP	9	216	2
TAP	9	228	3
TAP	9	240	4
TAP	9	252	5
TAP	9	264	6
TAP	9	276	7
BRK	9	288	0
TAP	10	0	3
TAP	10	0	4
TAP	10	48	2
TAP	10	72	3
TAP	10	96	0
TAP	10	144	5
TAP	10	168	4
STR	10	192	7
SI_	10	192	7	96	48	3
TAP	10	240	2
TAP	10	264	2
TAP	10	312	1
TAP	10	360	0
TAP	11	0	5
TAP	11	24	4
TAP	11	48	5
TAP	11	72	1
TAP	11	96	5
TAP	11	120	3
TAP	11	144	5
STR	11	168	7
SI_	11	168	7	96	48	3
TAP	11	192	5
TAP	11	240	0
TAP	11	264	0
TAP	12	0	3
TAP	12	0	4
TAP	12	48	0
TAP	12	72	3
TAP	12	96	2
TAP	12	144	7
TAP	12	168	4
STR	12	192	5
SCR	12	192	5	96	48	0
TAP	12	240	1
TAP	12	264	1
TAP	12	312	2
TAP	12	360	3
TAP	13	0	5
TAP	13	24	4
TAP	13	48	5
TAP	13	72	1
TAP	13	96	5
TAP	13	120	3
TAP	13	144	5
TAP	13	168	7
STR	13	192	5
SF_	13	192	5	96	48	1
TAP	13	216	3
TAP	14	0	3
TAP	14	0	4
TAP	14	48	5
TAP	14	72	4
TAP	14	96	7
TAP	14	144	2
TAP	14	168	3
STR	14	192	0
SI_	14	192	0	96	48	4
TAP	14	240	5
TAP	14	264	5
TAP	14	312	6
TAP	14	360	7
TAP	15	0	2
TAP	15	24	3
TAP	15	48	2
TAP	15	72	6
TAP	15	96	2
TAP	15	120	4
TAP	15	144	2
STR	15	168	0
SI_	15	168	0	96	48	4
TAP	15	192	2
TAP	15	240	7
TAP	15	264	7
HLD	16	0	1	48
TAP	16	48	6
HLD	16	72	2	48
TAP	16	120	7
HLD	16	144	3	48
TAP	16	192	0
HLD	16	216	4	48
HLD	16	264	1	304
HLD	16	288	5	280
TAP	17	192	0
TAP	17	192	4
TAP	17	208	3
TAP	17	208	7
TAP	17	224	2
TAP	17	224	6
TAP	17	240	1
TAP	17	240	5
TAP	17	256	0
TAP	17	256	4
TAP	17	272	3
TAP	17	272	7
TAP	17	288	2
TAP	17	288	6
STR	18	0	0
SUR	18	0	0	96	48	4
STR	18	0	1
SUR	18	0	1	96	48	5
HLD	18	192	3	48
HLD	18	192	6	48
HLD	18	264	1	48
HLD	18	264	5	48
TAP	18	336	3
TAP	18	336	7
STR	19	0	5
SUR	19	0	5	96	48	2
STR	19	0	6
SI_	19	0	6	96	48	3
HLD	19	192	1	48
HLD	19	192	4	48
HLD	19	264	2	48
HLD	19	264	6	48
TAP	19	336	0
TAP	19	336	4
STR	20	0	2
SUL	20	0	2	96	48	5
STR	20	0	3
SV_	20	0	3	96	48	4
HLD	20	192	3	48
HLD	20	192	6	48
HLD	20	264	1	48
HLD	20	264	5	48
TAP	20	336	3
TAP	20	336	7
TAP	21	0	2
TAP	21	0	4
BRK	21	192	7
BRK	21	288	0
STR	22	0	6
SUL	22	0	6	96	48	2
STR	22	0	7
SUL	22	0	7	96	48	3
HLD	22	192	1	48
HLD	22	192	4	48
HLD	22	264	2	48
HLD	22	264	6	48
TAP	22	336	0
TAP	22	336	4
STR	23	0	1
SI_	23	0	1	96	48	4
STR	23	0	2
SUL	23	0	2	96	48	5
HLD	23	192	3	48
HLD	23	192	6	48
HLD	23	264	1	48
HLD	23	264	5	48
TAP	23	336	3
TAP	23	336	7
STR	24	0	4
SV_	24	0	4	96	48	3
STR	24	0	5
SUR	24	0	5	96	48	2
HLD	24	192	1	48
HLD	24	192	4	48
HLD	24	264	2	48
HLD	24	264	6	48
TAP	24	336	0
TAP	24	336	4
TAP	25	0	3
TAP	25	0	5
BRK	25	192	0
BRK	25	288	7
HLD	26	0	6	72
TAP	26	72	7
TAP	26	96	6
TAP	26	144	4
TAP	26	144	5
TAP	26	192	0
TAP	26	192	7
TAP	26	240	2
TAP	26	240	3
TAP	26	288	0
TAP	26	288	7
TAP	26	336	4
TAP	26	336	5
HLD	27	0	1	72
TAP	27	72	0
TAP	27	96	1
TAP	27	144	4
STR	27	144	6
SLL	27	144	6	96	48	0
TAP	27	240	3
TAP	27	288	2
TAP	27	336	1
TAP	27	336	7
HLD	28	0	6	72
TAP	28	72	7
TAP	28	96	6
STR	28	144	1
SLR	28	144	1	96	48	7
TAP	28	144	3
TAP	28	240	4
TAP	28	288	5
TAP	28	336	0
TAP	28	336	6
HLD	29	0	1	72
TAP	29	72	0
TAP	29	96	1
HLD	29	144	4	72
HLD	29	144	6	72
STR	29	240	4
SI_	29	240	4	96	48	0
TAP	29	240	6
TAP	29	288	3
TAP	29	288	5
TAP	29	336	2
TAP	29	336	4
HLD	30	0	1	72
TAP	30	72	0
TAP	30	96	1
TAP	30	144	2
TAP	30	144	3
TAP	30	192	0
TAP	30	192	7
TAP	30	240	4
TAP	30	240	5
TAP	30	288	0
TAP	30	288	7
TAP	30	336	2
TAP	30	336	3
HLD	31	0	6	72
TAP	31	72	7
TAP	31	96	6
STR	31	144	1
SCL	31	144	1	96	48	6
TAP	31	144	3
TAP	31	240	6
TAP	31	288	5
TAP	31	336	0
STR	31	336	4
SI_	31	336	4	96	48	0
TAP	32	0	1
TAP	32	48	2
STR	32	96	3
SI_	32	96	3	96	48	7
TAP	32	144	4
TAP	32	192	5
TAP	32	240	6
TAP	32	288	0
TAP	32	288	7
TAP	32	336	1
TAP	32	336	6
TAP	33	0	2
TAP	33	0	5
STR	33	72	0
SXL	33	72	0	96	72	3
STR	33	72	7
SXR	33	72	7	96	72	4
TAP	33	144	0
TAP	33	144	7
TAP	33	288	1
TAP	33	288	6
TAP	34	0	1
TAP	34	24	1
TAP	34	48	3
TAP	34	72	3
TAP	34	96	2
TAP	34	120	2
TAP	34	144	4
TAP	34	168	4
TAP	34	192	3
TAP	34	216	3
TAP	34	240	5
TAP	34	264	5
TAP	34	288	4
TAP	34	312	4
TAP	34	336	6
TAP	34	360	6
TAP	35	0	0
TAP	35	24	7
TAP	35	48	0
TAP	35	96	2
TAP	35	96	5
TAP	35	144	6
TAP	35	168	4
TAP	35	216	1
TAP	35	240	3
BST	35	288	0
SUL	35	288	0	96	48	3
BST	35	288	7
SUR	35	288	7	96	48	4
TAP	36	0	0
TAP	36	0	7
TAP	36	96	2
TAP	36	144	1
TAP	36	144	3
TAP	36	192	5
TAP	36	240	4
TAP	36	240	6
TAP	36	288	7
TAP	36	312	7
TAP	37	0	1
TAP	37	0	3
TAP	37	48	4
TAP	37	48	6
TAP	37	96	3
TAP	37	120	3
TAP	37	144	4
TAP	37	168	4
TAP	37	192	3
TAP	37	240	2
TAP	37	240	5
STR	37	288	1
SUR	37	288	1	96	48	6
TAP	37	288	6
STR	38	0	5
SCL	38	0	5	96	48	2
TAP	38	96	1
TAP	38	192	0
TAP	38	216	0
TAP	38	240	7
TAP	38	264	7
TAP	38	288	0
TAP	38	336	1
TAP	38	336	6
STR	39	0	2
SCR	39	0	2	96	48	5
TAP	39	0	5
TAP	39	96	6
TAP	39	112	7
TAP	39	128	0
TAP	39	144	1
STR	39	192	7
SF_	39	192	7	96	48	3
TAP	39	288	7
STR	40	0	1
SCL	40	0	1	96	48	6
STR	40	0	5
SCL	40	0	5	96	48	2
TAP	40	96	1
TAP	40	96	5
TAP	40	192	1
TAP	40	192	5
HLD	40	240	2	48
HLD	40	240	6	48
TAP	40	312	2
TAP	40	312	6
STR	41	0	1
SI_	41	0	1	96	48	5
STR	41	48	6
SI_	41	48	6	96	48	2
TAP	41	96	1
TAP	41	144	6
TAP	41	192	0
TAP	41	240	0
TAP	41	240	7
TAP	41	288	1
STR	41	288	6
SUL	41	288	6	96	48	1
STR	42	0	2
SCR	42	0	2	96	48	5
TAP	42	96	6
TAP	42	192	7
TAP	42	216	7
TAP	42	240	0
TAP	42	264	0
TAP	42	288	7
TAP	42	336	2
TAP	42	336	5
TAP	43	0	0
TAP	43	0	7
TAP	43	24	1
TAP	43	24	6
TAP	43	48	2
TAP	43	48	5
TAP	43	72	3
TAP	43	72	4
TAP	43	96	2
TAP	43	96	5
TAP	43	144	1
TAP	43	168	0
TAP	43	216	6
TAP	43	240	7
BRK	43	288	2
BRK	43	288	5
TAP	44	0	3
TAP	44	0	4
STR	44	48	3
SI_	44	48	3	96	48	6
TAP	44	48	4
TAP	44	144	2
STR	44	144	3
SI_	44	144	3	96	48	1
STR	44	240	3
SI_	44	240	3	96	48	5
TAP	44	240	4
TAP	44	336	2
STR	44	336	3
SI_	44	336	3	96	48	7
TAP	45	48	3
STR	45	48	4
SI_	45	48	4	96	48	1
STR	45	144	4
SI_	45	144	4	96	48	6
TAP	45	144	5
TAP	45	240	3
STR	45	240	4
SI_	45	240	4	96	48	2
STR	45	336	4
SI_	45	336	4	96	48	0
TAP	45	336	5
STR	46	48	3
SI_	46	48	3	96	48	6
TAP	46	48	4
TAP	46	144	2
STR	46	144	3
SI_	46	144	3	96	48	1
STR	46	240	3
SI_	46	240	3	96	48	7
TAP	46	240	4
TAP	46	336	2
STR	46	336	3
SCL	46	336	3	96	48	0
TAP	47	48	3
STR	47	48	4
SCR	47	48	4	96	48	7
TAP	47	144	3
TAP	47	144	4
TAP	47	240	2
TAP	47	240	3
BRK	47	288	7
TAP	48	0	3
TAP	48	0	4
TAP	48	48	3
STR	48	48	4
SI_	48	48	4	96	48	1
STR	48	144	4
SI_	48	144	4	96	48	6
TAP	48	144	5
TAP	48	240	3
STR	48	240	4
SI_	48	240	4	96	48	2
STR	48	336	4
SI_	48	336	4	96	48	0
TAP	48	336	5
STR	49	48	3
SI_	49	48	3	96	48	6
TAP	49	48	4
TAP	49	144	2
STR	49	144	3
SI_	49	144	3	96	48	1
STR	49	240	3
SI_	49	240	3	96	48	7
TAP	49	240	4
TAP	49	336	2
STR	49	336	3
SCL	49	336	3	96	48	0
TAP	50	48	3
STR	50	48	4
SCR	50	48	4	96	48	7
STR	50	144	3
SF_	50	144	3	96	48	7
TAP	50	144	4
TAP	50	240	3
TAP	50	336	1
TAP	50	336	5
TAP	51	0	3
TAP	51	24	7
TAP	51	48	2
TAP	51	72	6
TAP	51	96	1
TAP	51	120	5
TAP	51	144	0
TAP	51	168	4
TAP	51	192	0
TAP	51	204	1
TAP	51	216	2
TAP	51	228	3
TAP	51	240	4
TAP	51	252	5
TAP	51	264	6
TAP	51	276	7
BRK	51	288	0
HLD	52	0	5	384
HLD	53	0	2	384
TAP	53	96	3
TAP	53	192	4
TAP	53	288	5
HLD	54	0	6	144
HLD	54	144	4	240
HLD	55	0	3	144
HLD	55	144	1	240
STR	56	0	0
SCL	56	0	0	96	96	5
TAP	56	48	0
STR	56	96	5
SCL	56	96	5	96	96	2
TAP	56	144	5
STR	56	192	2
SCL	56	192	2	96	96	7
TAP	56	240	2
STR	56	288	7
SCL	56	288	7	96	96	4
TAP	56	336	7
STR	57	0	4
SCL	57	0	4	96	96	1
TAP	57	48	4
STR	57	96	1
SCL	57	96	1	96	96	6
TAP	57	144	1
STR	57	192	6
SCL	57	192	6	96	72	4
TAP	57	240	6
TAP	57	288	3
TAP	57	336	3
TAP	58	0	1
TAP	58	24	3
TAP	58	48	2
TAP	58	96	6
TAP	58	120	4
TAP	58	144	5
TAP	58	192	0
TAP	58	216	3
TAP	58	240	2
TAP	58	288	7
TAP	58	312	4
TAP	58	336	5
TAP	59	0	3
TAP	59	24	4
STR	59	48	3
SXL	59	48	3	96	96	3
SXR	59	48	3	96	96	3
BRK	59	288	3
BRK	59	288	7
HLD	60	0	1	72
TAP	60	72	0
TAP	60	96	1
TAP	60	144	2
TAP	60	144	3
TAP	60	192	5
TAP	60	192	6
TAP	60	240	0
TAP	60	240	1
TAP	60	288	3
TAP	60	288	4
TAP	60	336	6
TAP	60	336	7
HLD	61	0	1	72
TAP	61	72	3
TAP	61	96	1
TAP	61	144	4
STR	61	144	6
SLL	61	144	6	96	48	0
TAP	61	240	3
TAP	61	288	2
TAP	61	336	1
TAP	61	336	7
HLD	62	0	6	72
TAP	62	72	4
TAP	62	96	6
STR	62	144	1
SLR	62	144	1	96	48	7
TAP	62	144	3
TAP	62	240	4
TAP	62	288	5
TAP	62	336	0
TAP	62	336	6
HLD	63	0	7	72
TAP	63	72	0
TAP	63	96	7
HLD	63	144	1	72
HLD	63	144	3	72
TAP	63	240	1
STR	63	240	3
SI_	63	240	3	96	48	7
TAP	63	288	2
TAP	63	288	4
TAP	63	336	3
TAP	63	336	5
HLD	64	0	6	72
TAP	64	72	7
TAP	64	96	6
TAP	64	144	4
TAP	64	144	5
TAP	64	192	1
TAP	64	192	2
TAP	64	240	6
TAP	64	240	7
TAP	64	288	3
TAP	64	288	4
TAP	64	336	0
TAP	64	336	1
HLD	65	0	6	72
TAP	65	72	4
TAP	65	96	6
STR	65	144	1
SCL	65	144	1	96	48	6
TAP	65	144	3
TAP	65	240	6
TAP	65	288	5
TAP	65	336	0
STR	65	336	4
SI_	65	336	4	96	48	0
TAP	66	0	1
TAP	66	48	2
STR	66	96	3
SI_	66	96	3	96	48	7
TAP	66	144	4
TAP	66	192	5
TAP	66	240	6
TAP	66	288	0
TAP	66	288	7
TAP	66	336	1
TAP	66	336	6
TAP	67	0	2
TAP	67	0	5
STR	67	72	0
SXL	67	72	0	96	72	3
STR	67	72	7
SXR	67	72	7	96	72	4
TAP	67	144	0
TAP	67	144	7
STR	67	288	1
SI_	67	288	1	96	48	5
STR	67	288	6
SI_	67	288	6	96	48	2
BRK	68	0	1
BRK	68	0	6

T_REC_TAP	447
T_REC_BRK	17
T_REC_XTP	0
T_REC_HLD	54
T_REC_XHO	0
T_REC_STR	93
T_REC_BST	2
T_REC_XST	0
T_REC_TTP	0
T_REC_THO	0
T_REC_SLD	96
T_REC_ALL	709
T_NUM_TAP	540
T_NUM_BRK	19
T_NUM_HLD	54
T_NUM_SLD	96
T_NUM_ALL	709
T_JUDGE_TAP	559
T_JUDGE_HLD	107
T_JUDGE_SLD	96
T_JUDGE_ALL	762
TTM_EACHPAIRS	144
TTM_SCR_TAP	270000
TTM_SCR_BRK	49400
TTM_SCR_HLD	54000
TTM_SCR_SLD	144000
TTM_SCR_ALL	517400
TTM_SCR_S	500050
TTM_SCR_SS	515500
TTM_RAT_ACV	10036

