VERSION	0.00.00	1.03.00
FES_MODE	0
BPM_DEF	135.000	135.000	135.000	135.000
MET_DEF	4	4
RESOLUTION	384
CLK_DEF	384
COMPATIBLE_CODE	MA2

BPM	0	0	135.000
MET	0	0	4	4

STR	1	0	2
SLL	1	0	2	96	96	3
STR	1	0	4
SLR	1	0	4	96	96	3
BRK	1	288	1
BRK	1	288	6
TAP	2	0	3
STR	2	0	4
SI_	2	0	4	96	48	0
HLD	2	192	1	72
HLD	2	264	2	72
TAP	2	336	3
STR	3	0	3
SI_	3	0	3	96	48	7
TAP	3	0	4
HLD	3	192	6	72
HLD	3	264	5	72
TAP	3	336	4
TAP	4	0	3
STR	4	0	4
SI_	4	0	4	96	48	0
HLD	4	192	1	72
HLD	4	264	2	72
TAP	4	336	3
STR	5	0	2
SLL	5	0	2	96	96	3
STR	5	0	4
SLR	5	0	4	96	96	3
BRK	5	288	1
BRK	5	288	6
HLD	6	0	0	48
HLD	6	0	7	48
HLD	6	96	0	48
HLD	6	96	1	48
HLD	6	192	1	48
HLD	6	192	2	48
HLD	6	288	2	48
HLD	6	288	3	48
HLD	7	0	3	48
HLD	7	0	4	48
HLD	7	96	4	48
HLD	7	96	5	48
HLD	7	192	5	48
HLD	7	192	6	48
TAP	7	288	6
TAP	7	288	7
TAP	8	0	2
TAP	8	48	3
TAP	8	96	4
TAP	8	144	5
TAP	8	192	6
TAP	8	240	7
STR	8	288	0
SCR	8	288	0	96	192	7
BRK	9	288	1
BRK	9	288	6
TAP	10	0	4
TAP	10	48	3
TAP	10	96	2
TAP	10	192	0
TAP	10	192	1
TAP	10	240	7
TAP	10	288	0
TAP	10	288	1
TAP	11	0	3
TAP	11	48	4
TAP	11	96	5
TAP	11	192	6
TAP	11	192	7
TAP	11	240	0
TAP	11	288	6
TAP	11	288	7
STR	12	0	0
SI_	12	0	0	96	48	4
STR	12	0	1
SI_	12	0	1	96	48	3
STR	12	192	6
SI_	12	192	6	96	48	4
STR	12	192	7
SI_	12	192	7	96	48	3
STR	13	0	1
SV_	13	0	1	96	96	4
STR	13	0	7
SV_	13	0	7	96	96	4
TAP	13	288	1
TAP	13	288	6
TAP	14	0	7
TAP	14	48	0
TAP	14	96	1
TAP	14	192	2
TAP	14	192	3
TAP	14	240	4
TAP	14	288	2
TAP	14	288	3
TAP	15	0	0
TAP	15	48	7
TAP	15	96	6
TAP	15	192	4
TAP	15	192	5
TAP	15	240	3
TAP	15	288	4
TAP	15	288	5
TAP	16	0	1
HLD	16	0	3	72
HLD	16	72	5	72
HLD	16	144	7	72
STR	16	216	1
SCL	16	216	1	96	264	2
HLD	16	288	5	288
BRK	17	288	0
BRK	17	288	7
STR	18	0	2
SI_	18	0	2	96	48	7
STR	18	96	3
SI_	18	96	3	96	48	6
HLD	18	192	2	72
HLD	18	264	3	72
TAP	18	336	4
TAP	19	0	4
STR	19	0	5
SI_	19	0	5	96	48	0
STR	19	96	4
SI_	19	96	4	96	48	1
HLD	19	192	5	72
HLD	19	264	4	72
TAP	19	336	3
STR	20	0	2
SI_	20	0	2	96	48	7
TAP	20	0	3
STR	20	96	3
SI_	20	96	3	96	48	6
HLD	20	192	2	72
HLD	20	264	3	72
TAP	20	336	4
STR	21	0	2
SLL	21	0	2	96	96	3
STR	21	0	4
SLR	21	0	4	96	96	3
BRK	21	288	1
BRK	21	288	6
STR	22	0	1
SI_	22	0	1	96	48	4
STR	22	96	0
SI_	22	96	0	96	48	5
HLD	22	192	1	72
HLD	22	264	0	72
TAP	22	336	7
STR	23	0	6
SI_	23	0	6	96	48	3
TAP	23	0	7
STR	23	96	7
SI_	23	96	7	96	48	2
HLD	23	192	6	72
HLD	23	264	7	72
TAP	23	336	0
TAP	24	0	0
STR	24	0	1
SI_	24	0	1	96	48	4
STR	24	96	0
SI_	24	96	0	96	48	5
HLD	24	192	1	72
HLD	24	264	2	72
TAP	24	336	3
STR	25	0	2
SLL	25	0	2	96	96	3
STR	25	0	4
SLR	25	0	4	96	96	3
BRK	25	288	1
BRK	25	288	6
STR	26	0	0
SCR	26	0	0	96	48	3
STR	26	0	3
SCR	26	0	3	96	48	6
TAP	26	192	0
TAP	26	240	1
TAP	26	240	7
TAP	26	288	2
TAP	26	288	6
TAP	26	336	3
TAP	26	336	5
HLD	27	0	4	72
STR	27	72	7
SCL	27	72	7	96	96	3
SCR	27	72	7	96	96	3
TAP	28	0	0
HLD	28	0	6	72
STR	28	72	5
SCL	28	72	5	96	72	1
TAP	28	288	0
TAP	28	288	7
HLD	29	0	1	72
TAP	29	0	7
STR	29	72	2
SCR	29	72	2	96	72	6
TAP	29	288	0
TAP	29	288	7
STR	30	0	4
SCL	30	0	4	96	48	1
STR	30	0	7
SCL	30	0	7	96	48	4
TAP	30	192	7
TAP	30	240	0
TAP	30	240	6
TAP	30	288	1
TAP	30	288	5
TAP	30	336	2
TAP	30	336	4
HLD	31	0	3	72
STR	31	72	0
SCL	31	72	0	96	96	4
SCR	31	72	0	96	96	4
STR	32	0	5
SI_	32	0	5	96	48	2
STR	32	0	6
SI_	32	0	6	96	48	1
STR	32	192	1
SI_	32	192	1	96	48	6
STR	32	192	2
SI_	32	192	2	96	48	5
STR	33	0	4
SXL	33	0	4	96	96	4
SXR	33	0	4	96	96	4
BST	33	288	3
SCL	33	288	3	96	384	4
BST	33	288	4
SUL	33	288	4	96	384	3
TAP	35	192	2
TAP	35	192	5
BRK	35	288	0
BRK	35	288	7
STR	36	0	1
SV_	36	0	1	96	48	7
STR	36	0	5
SV_	36	0	5	96	48	3
STR	36	192	2
SXR	36	192	2	96	48	0
STR	36	192	6
SXR	36	192	6	96	48	4
TAP	37	0	2
TAP	37	0	6
TAP	37	48	2
TAP	37	48	6
TAP	37	96	5
TAP	37	120	4
TAP	37	144	5
TAP	37	168	4
STR	37	192	5
SI_	37	192	5	96	48	0
TAP	37	288	1
STR	38	0	2
SV_	38	0	2	96	48	4
STR	38	0	6
SV_	38	0	6	96	48	0
STR	38	192	1
SXL	38	192	1	96	48	3
STR	38	192	5
SXL	38	192	5	96	48	7
TAP	39	0	1
TAP	39	0	5
TAP	39	48	1
TAP	39	48	5
TAP	39	96	2
TAP	39	120	3
TAP	39	144	2
TAP	39	168	3
STR	39	192	2
SI_	39	192	2	96	48	7
TAP	39	288	6
STR	40	0	2
SV_	40	0	2	96	48	0
STR	40	0	6
SV_	40	0	6	96	48	4
STR	40	192	3
SXR	40	192	3	96	48	1
STR	40	192	7
SXR	40	192	7	96	48	5
TAP	41	0	6
TAP	41	48	6
TAP	41	48	7
TAP	41	96	1
TAP	41	144	0
TAP	41	144	1
TAP	41	192	5
TAP	41	216	4
TAP	41	240	5
TAP	41	264	4
TAP	41	288	5
TAP	41	336	1
TAP	41	336	6
STR	42	0	1
SV_	42	0	1	96	48	3
STR	42	0	5
SV_	42	0	5	96	48	7
STR	42	192	0
SXL	42	192	0	96	48	2
STR	42	192	4
SXL	42	192	4	96	48	6
STR	43	0	0
SXL	43	0	0	96	144	4
SXR	43	0	0	96	144	4
BRK	43	288	1
BRK	43	288	6
TAP	44	0	4
STR	44	48	3
SI_	44	48	3	96	48	7
TAP	44	48	4
TAP	44	144	6
TAP	44	240	2
STR	44	240	3
SI_	44	240	3	96	48	7
TAP	44	336	0
STR	45	48	3
SI_	45	48	3	96	48	7
TAP	45	48	4
TAP	45	144	6
TAP	45	240	2
STR	45	240	3
SI_	45	240	3	96	48	7
TAP	45	336	0
STR	46	48	3
SI_	46	48	3	96	48	7
TAP	46	48	4
TAP	46	144	6
TAP	46	240	2
STR	46	240	3
SI_	46	240	3	96	48	7
TAP	46	336	0
STR	47	48	3
SI_	47	48	3	96	48	7
TAP	47	48	4
TAP	47	144	6
TAP	47	240	0
TAP	47	240	7
TAP	47	288	1
TAP	47	288	6
TAP	48	0	3
TAP	48	48	3
STR	48	48	4
SI_	48	48	4	96	48	0
TAP	48	144	1
STR	48	240	4
SI_	48	240	4	96	48	0
TAP	48	240	5
TAP	48	336	7
TAP	49	48	3
STR	49	48	4
SI_	49	48	4	96	48	0
TAP	49	144	1
STR	49	240	4
SI_	49	240	4	96	48	0
TAP	49	240	5
TAP	49	336	7
TAP	50	0	7
TAP	50	48	6
TAP	50	96	5
TAP	50	144	4
TAP	50	192	3
TAP	50	240	2
TAP	50	288	1
TAP	50	336	0
TAP	50	336	7
TAP	51	0	0
TAP	51	24	7
TAP	51	48	0
TAP	51	72	7
TAP	51	96	0
TAP	51	120	7
TAP	51	144	0
TAP	51	168	7
TAP	51	192	0
BRK	51	288	1
BRK	51	288	6
STR	52	0	5
SCR	52	0	5	96	192	2
STR	53	0	2
SCL	53	0	2	96	192	5
STR	54	0	5
SCR	54	0	5	96	144	2
SUR	54	0	5	96	144	2
TAP	54	288	3
STR	55	0	2
SCL	55	0	2	96	144	5
SUL	55	0	2	96	144	5
TAP	55	288	4
STR	56	0	4
SI_	56	0	4	96	48	0
HLD	56	0	5	96
TAP	56	192	6
TAP	56	240	7
TAP	56	288	0
HLD	57	0	2	96
STR	57	0	3
SI_	57	0	3	96	48	7
TAP	57	192	1
TAP	57	240	0
TAP	57	288	7
STR	58	0	6
SCR	58	0	6	96	48	1
STR	58	192	2
SUL	58	192	2	96	48	5
STR	59	0	4
SXL	59	0	4	96	96	4
SXR	59	0	4	96	96	4
BRK	59	288	1
BRK	59	288	6
STR	60	0	3
SCL	60	0	3	96	48	0
STR	60	0	6
SCL	60	0	6	96	48	3
TAP	60	192	5
TAP	60	192	7
TAP	60	240	6
TAP	60	288	0
TAP	60	288	2
TAP	60	336	1
TAP	61	0	4
HLD	61	0	6	72
STR	61	72	7
SCL	61	72	7	96	96	3
SCR	61	72	7	96	96	3
HLD	62	0	1	72
TAP	62	0	7
STR	62	72	2
SCR	62	72	2	96	72	6
TAP	62	240	0
TAP	62	288	0
TAP	62	288	7
TAP	63	0	0
HLD	63	0	6	72
STR	63	72	5
SCL	63	72	5	96	72	1
TAP	63	240	7
BRK	63	288	0
BRK	63	288	7
STR	64	0	1
SCR	64	0	1	96	48	4
STR	64	0	4
SCR	64	0	4	96	48	7
TAP	64	192	0
TAP	64	192	2
TAP	64	240	1
TAP	64	288	5
TAP	64	288	7
TAP	64	336	6
HLD	65	0	1	72
TAP	65	0	3
STR	65	72	0
SCL	65	72	0	96	96	4
SCR	65	72	0	96	96	4
STR	66	0	5
SUR	66	0	5	96	48	2
STR	66	0	6
SCR	66	0	6	96	48	1
STR	66	192	1
SCL	66	192	1	96	48	6
STR	66	192	2
SUL	66	192	2	96	48	5
TAP	67	0	1
TAP	67	0	3
TAP	67	48	2
TAP	67	96	4
TAP	67	96	6
TAP	67	144	5
TAP	67	192	1
TAP	67	192	6
BST	67	288	3
SCL	67	288	3	96	384	4
BST	67	288	4
SUL	67	288	4	96	384	3

T_REC_TAP	194
T_REC_BRK	22
T_REC_XTP	0
T_REC_HLD	46
T_REC_XHO	0
T_REC_STR	95
T_REC_BST	4
T_REC_XST	0
T_REC_TTP	0
T_REC_THO	0
T_REC_SLD	108
T_REC_ALL	469
T_NUM_TAP	289
T_NUM_BRK	26
T_NUM_HLD	46
T_NUM_SLD	108
T_NUM_ALL	469
T_JUDGE_TAP	315
T_JUDGE_HLD	82
T_JUDGE_SLD	108
T_JUDGE_ALL	505
TTM_EACHPAIRS	107
TTM_SCR_TAP	144500
TTM_SCR_BRK	67600
TTM_SCR_HLD	46000
TTM_SCR_SLD	162000
TTM_SCR_ALL	420100
TTM_SCR_S	405000
TTM_SCR_SS	417500
TTM_RAT_ACV	10062

