VERSION	0.00.00	1.03.00
FES_MODE	0
BPM_DEF	135.000	135.000	135.000	135.000
MET_DEF	4	4
RESOLUTION	384
CLK_DEF	384
COMPATIBLE_CODE	MA2

BPM	0	0	135.000
MET	0	0	4	4

TAP	1	0	4
TAP	1	96	4
TAP	1	192	3
TAP	1	240	3
TAP	1	288	3
TAP	2	0	4
HLD	2	0	5	96
TAP	2	96	4
HLD	2	192	2	96
TAP	2	192	3
TAP	2	288	3
TAP	3	0	4
HLD	3	0	5	96
TAP	3	96	4
TAP	3	192	3
TAP	3	192	4
HLD	4	0	2	96
TAP	4	0	3
TAP	4	96	3
TAP	4	192	4
HLD	4	192	5	96
TAP	4	288	4
HLD	5	0	2	96
TAP	5	0	3
TAP	5	96	3
TAP	5	192	4
TAP	5	240	4
TAP	5	288	4
TAP	6	0	2
TAP	6	96	2
TAP	6	96	3
TAP	6	192	5
TAP	6	288	4
TAP	6	288	5
TAP	7	0	2
TAP	7	96	2
TAP	7	96	3
TAP	7	192	5
TAP	7	288	4
TAP	7	288	5
TAP	8	0	2
TAP	8	96	1
TAP	8	96	3
TAP	8	192	5
TAP	8	288	4
TAP	8	288	6
STR	9	0	3
SI_	9	0	3	96	96	0
STR	9	0	4
SI_	9	0	4	96	96	7
BRK	9	288	1
BRK	9	288	6
TAP	10	0	2
TAP	10	96	2
TAP	10	192	2
TAP	10	192	3
TAP	11	0	5
TAP	11	96	5
TAP	11	192	4
TAP	11	192	5
TAP	12	0	2
TAP	12	96	2
TAP	12	192	3
TAP	12	288	3
TAP	13	0	4
TAP	13	96	4
TAP	13	192	4
TAP	13	192	5
TAP	14	0	6
TAP	14	96	6
TAP	14	192	6
TAP	14	192	7
TAP	15	0	1
TAP	15	96	1
TAP	15	192	0
TAP	15	192	1
STR	16	0	0
SXL	16	0	0	96	480	3
STR	16	0	7
SXR	16	0	7	96	480	4
HLD	18	0	6	96
HLD	18	96	5	96
HLD	18	192	4	96
HLD	18	288	3	192
TAP	19	0	4
TAP	19	96	4
TAP	19	192	2
TAP	19	192	5
HLD	20	0	1	96
HLD	20	96	2	96
HLD	20	192	3	96
HLD	20	288	4	192
TAP	21	0	3
TAP	21	96	3
TAP	21	192	4
TAP	21	240	4
TAP	21	288	4
HLD	22	0	5	96
HLD	22	96	6	96
HLD	22	192	7	96
HLD	22	288	0	192
TAP	23	0	7
TAP	23	96	7
TAP	23	192	1
TAP	23	192	6
HLD	24	0	2	96
HLD	24	96	1	96
HLD	24	192	0	96
HLD	24	288	7	192
TAP	25	0	0
TAP	25	96	0
TAP	25	192	7
TAP	25	240	7
TAP	25	288	7
TAP	26	0	4
TAP	26	0	5
TAP	26	96	2
TAP	26	96	3
TAP	26	192	4
TAP	26	192	5
TAP	26	288	4
TAP	26	288	5
TAP	27	0	2
TAP	27	0	3
TAP	27	96	4
TAP	27	96	5
HLD	27	192	2	96
HLD	27	192	3	96
TAP	28	0	0
TAP	28	0	1
TAP	28	96	6
TAP	28	96	7
HLD	28	192	0	96
HLD	28	192	1	96
TAP	29	0	6
TAP	29	0	7
TAP	29	96	0
TAP	29	96	1
TAP	29	192	6
TAP	29	192	7
BRK	29	288	6
BRK	29	288	7
TAP	30	0	4
TAP	30	0	5
TAP	30	96	2
TAP	30	96	3
HLD	30	192	4	96
HLD	30	192	5	96
TAP	31	0	2
TAP	31	0	3
TAP	31	96	4
TAP	31	96	5
HLD	31	192	2	96
HLD	31	192	3	96
TAP	32	0	0
TAP	32	0	1
TAP	32	96	6
TAP	32	96	7
TAP	32	192	0
TAP	32	192	1
TAP	32	288	6
TAP	32	288	7
STR	33	0	0
SI_	33	0	0	96	96	3
STR	33	0	7
SI_	33	0	7	96	96	4
STR	34	0	3
SXR	34	0	3	96	432	0
STR	34	0	4
SXL	34	0	4	96	432	7
BRK	35	288	1
BRK	35	288	6
STR	36	0	1
SI_	36	0	1	96	96	5
TAP	36	192	6
TAP	36	288	6
STR	37	0	6
SI_	37	0	6	96	96	2
TAP	37	192	1
TAP	37	288	1
STR	38	0	1
SI_	38	0	1	96	96	5
TAP	38	192	6
TAP	38	288	6
STR	39	0	6
SI_	39	0	6	96	96	2
TAP	39	288	1
TAP	39	288	3
STR	40	0	0
SI_	40	0	0	96	96	4
TAP	40	192	5
TAP	40	288	6
STR	41	0	7
SI_	41	0	7	96	96	3
TAP	41	192	2
TAP	41	288	1
STR	42	0	0
SI_	42	0	0	96	96	4
TAP	42	192	5
TAP	42	288	6
STR	43	0	7
SSR	43	0	7	96	192	3
HLD	44	0	2	96
TAP	44	96	3
HLD	44	192	5	96
TAP	44	288	4
HLD	45	0	1	96
TAP	45	96	0
HLD	45	192	6	96
TAP	45	288	7
HLD	46	0	3	96
TAP	46	96	2
HLD	46	192	4	96
TAP	46	288	5
HLD	47	0	3	96
TAP	47	96	4
TAP	47	192	1
TAP	47	192	6
TAP	47	288	1
TAP	47	288	6
TAP	48	0	5
TAP	48	96	4
TAP	48	96	5
TAP	48	192	2
TAP	48	288	2
TAP	48	288	3
TAP	49	0	5
TAP	49	96	4
TAP	49	96	6
TAP	49	192	2
TAP	49	288	1
TAP	49	288	3
TAP	50	0	3
TAP	50	0	4
TAP	50	96	2
TAP	50	96	5
TAP	50	192	1
TAP	50	192	6
TAP	50	288	0
TAP	50	288	7
STR	51	0	1
SLR	51	0	1	96	192	0
STR	51	0	6
SLL	51	0	6	96	192	7
HLD	52	0	0	192
HLD	52	0	7	192
HLD	53	0	1	192
HLD	53	0	6	192
HLD	54	0	2	192
HLD	54	0	5	192
HLD	55	0	3	192
HLD	55	0	4	192
TAP	56	0	4
TAP	56	0	5
TAP	56	96	5
TAP	56	192	6
TAP	56	288	7
TAP	57	0	2
TAP	57	0	3
TAP	57	96	2
TAP	57	192	1
TAP	57	288	0
HLD	58	0	0	96
HLD	58	0	1	96
HLD	58	192	6	96
HLD	58	192	7	96
HLD	59	0	0	192
HLD	59	0	7	192
BRK	59	288	1
BRK	59	288	6
TAP	60	0	2
TAP	60	0	3
TAP	60	96	2
TAP	60	96	3
TAP	60	192	0
TAP	60	192	1
TAP	60	288	6
TAP	60	288	7
TAP	61	0	4
TAP	61	0	5
TAP	61	96	4
TAP	61	96	5
TAP	61	192	6
TAP	61	192	7
TAP	61	288	0
TAP	61	288	1
STR	62	0	2
SI_	62	0	2	96	96	7
STR	62	0	3
SI_	62	0	3	96	96	6
STR	63	0	4
SI_	63	0	4	96	96	1
STR	63	0	5
SI_	63	0	5	96	96	0
TAP	64	0	0
TAP	64	0	1
TAP	64	96	2
TAP	64	96	7
BRK	64	192	3
BRK	64	192	6
TAP	65	0	6
TAP	65	0	7
TAP	65	96	0
TAP	65	96	5
BRK	65	192	1
BRK	65	192	4
TAP	66	0	0
TAP	66	0	1
TAP	66	96	6
TAP	66	96	7
TAP	66	192	0
TAP	66	192	1
TAP	66	288	6
TAP	66	288	7
STR	67	0	0
SCR	67	0	0	96	192	3
STR	67	0	7
SCL	67	0	7	96	192	4
BST	68	0	4
SF_	68	0	4	96	288	0

T_REC_TAP	207
T_REC_BRK	12
T_REC_XTP	0
T_REC_HLD	51
T_REC_XHO	0
T_REC_STR	24
T_REC_BST	1
T_REC_XST	0
T_REC_TTP	0
T_REC_THO	0
T_REC_SLD	25
T_REC_ALL	320
T_NUM_TAP	231
T_NUM_BRK	13
T_NUM_HLD	51
T_NUM_SLD	25
T_NUM_ALL	320
T_JUDGE_TAP	244
T_JUDGE_HLD	130
T_JUDGE_SLD	25
T_JUDGE_ALL	399
TTM_EACHPAIRS	93
TTM_SCR_TAP	115500
TTM_SCR_BRK	33800
TTM_SCR_HLD	51000
TTM_SCR_SLD	37500
TTM_SCR_ALL	237800
TTM_SCR_S	229450
TTM_SCR_SS	236500
TTM_RAT_ACV	10054

