VERSION	0.00.00	1.03.00
FES_MODE	0
BPM_DEF	135.000	135.000	135.000	135.000
MET_DEF	4	4
RESOLUTION	384
CLK_DEF	384
COMPATIBLE_CODE	MA2

BPM	0	0	135.000
MET	0	0	4	4

TAP	2	0	0
TAP	2	192	0
TAP	3	0	1
TAP	3	192	1
TAP	4	0	2
TAP	4	192	2
TAP	5	0	3
TAP	5	96	3
TAP	5	192	3
TAP	5	192	4
HLD	6	0	4	192
HLD	7	0	5	192
TAP	8	0	6
TAP	8	96	6
TAP	8	192	6
TAP	8	288	6
TAP	9	0	7
TAP	9	96	7
TAP	9	192	0
TAP	9	192	7
TAP	10	0	7
TAP	10	96	7
TAP	10	192	7
TAP	11	0	6
TAP	11	96	6
TAP	11	192	6
TAP	12	0	5
TAP	12	96	5
TAP	12	192	5
TAP	13	0	4
TAP	13	96	3
TAP	13	192	4
TAP	14	0	3
TAP	14	96	3
TAP	14	192	3
TAP	15	0	2
TAP	15	96	2
TAP	15	192	2
STR	16	0	1
SI_	16	0	1	96	288	5
TAP	18	0	7
TAP	18	96	7
TAP	18	192	7
TAP	19	0	0
TAP	19	96	0
TAP	19	192	0
TAP	20	0	1
TAP	20	96	1
TAP	20	192	1
TAP	21	0	2
TAP	21	0	3
TAP	21	96	2
TAP	21	96	3
BRK	21	192	2
BRK	21	192	3
TAP	22	0	3
TAP	22	96	3
TAP	22	192	3
TAP	23	0	4
TAP	23	96	4
TAP	23	192	4
TAP	24	0	5
TAP	24	96	5
TAP	24	192	5
TAP	25	0	6
TAP	25	0	7
TAP	25	96	6
TAP	25	96	7
BRK	25	192	6
BRK	25	192	7
TAP	26	0	1
TAP	26	96	1
TAP	26	192	0
TAP	26	192	1
TAP	27	0	6
TAP	27	96	6
TAP	27	192	6
TAP	27	192	7
TAP	28	0	5
TAP	28	96	5
TAP	28	192	4
TAP	28	288	4
TAP	29	0	3
TAP	29	96	3
TAP	29	192	2
TAP	29	192	5
TAP	30	0	6
TAP	30	96	6
TAP	30	192	6
TAP	30	192	7
TAP	31	0	1
TAP	31	96	1
TAP	31	192	0
TAP	31	192	1
TAP	32	0	2
TAP	32	96	2
TAP	32	192	3
TAP	32	288	3
TAP	33	0	4
TAP	33	96	4
TAP	33	192	2
TAP	33	192	5
STR	34	0	3
SI_	34	0	3	96	288	0
STR	34	0	4
SI_	34	0	4	96	288	7
TAP	36	0	7
TAP	36	96	7
TAP	36	192	7
TAP	37	0	0
TAP	37	96	0
TAP	37	192	0
TAP	37	192	7
TAP	38	0	1
TAP	38	96	1
TAP	38	192	1
HLD	39	0	2	192
HLD	39	0	3	192
TAP	40	0	3
TAP	40	96	3
TAP	40	192	3
TAP	41	0	4
TAP	41	96	4
TAP	41	192	3
TAP	41	192	4
TAP	42	0	5
TAP	42	96	5
TAP	42	192	5
HLD	43	0	6	192
HLD	43	0	7	192
TAP	44	0	0
TAP	44	96	0
TAP	44	192	0
TAP	44	288	0
TAP	45	0	7
TAP	45	96	7
TAP	45	192	7
TAP	45	288	7
TAP	46	0	6
TAP	46	96	6
TAP	46	192	6
TAP	46	288	6
TAP	47	0	5
TAP	47	96	5
TAP	47	192	4
TAP	47	192	5
TAP	48	0	4
TAP	48	96	4
TAP	48	192	4
TAP	48	288	4
TAP	49	0	3
TAP	49	96	3
TAP	49	192	3
TAP	49	288	3
TAP	50	0	2
TAP	50	96	2
TAP	50	192	2
TAP	50	288	2
TAP	51	0	1
TAP	51	96	1
TAP	51	192	0
TAP	51	192	1
STR	52	0	0
SI_	52	0	0	96	288	3
STR	54	0	7
SI_	54	0	7	96	288	4
HLD	56	0	0	384
HLD	56	192	7	192
TAP	57	192	1
TAP	57	192	6
HLD	58	0	1	384
HLD	58	192	6	192
TAP	59	192	0
TAP	59	192	7
TAP	60	0	0
TAP	60	96	0
TAP	60	192	1
TAP	60	288	1
TAP	61	0	2
TAP	61	0	3
TAP	61	96	2
TAP	61	96	3
TAP	61	192	2
TAP	61	192	3
TAP	62	0	4
TAP	62	96	4
TAP	62	192	5
TAP	62	288	5
TAP	63	0	6
TAP	63	96	6
BRK	63	192	0
BRK	63	192	7
TAP	64	0	7
TAP	64	96	7
TAP	64	192	6
TAP	64	288	6
TAP	65	0	4
TAP	65	0	5
TAP	65	96	4
TAP	65	96	5
TAP	65	192	4
TAP	65	192	5
TAP	66	0	3
TAP	66	96	3
TAP	66	192	2
TAP	66	288	2
TAP	67	0	1
TAP	67	96	1
BRK	67	192	0
BRK	67	192	7
STR	68	0	0
SI_	68	0	0	96	288	3
STR	68	0	7
SI_	68	0	7	96	288	4

T_REC_TAP	182
T_REC_BRK	8
T_REC_XTP	0
T_REC_HLD	10
T_REC_XHO	0
T_REC_STR	7
T_REC_BST	0
T_REC_XST	0
T_REC_TTP	0
T_REC_THO	0
T_REC_SLD	7
T_REC_ALL	214
T_NUM_TAP	189
T_NUM_BRK	8
T_NUM_HLD	10
T_NUM_SLD	7
T_NUM_ALL	214
T_JUDGE_TAP	197
T_JUDGE_HLD	48
T_JUDGE_SLD	7
T_JUDGE_ALL	252
TTM_EACHPAIRS	32
TTM_SCR_TAP	94500
TTM_SCR_BRK	20800
TTM_SCR_HLD	10000
TTM_SCR_SLD	10500
TTM_SCR_ALL	135800
TTM_SCR_S	130950
TTM_SCR_SS	135000
TTM_RAT_ACV	10059

