VERSION	0.00.00	1.03.00
FES_MODE	0
BPM_DEF	153.000	153.000	153.000	153.000
MET_DEF	4	4
RESOLUTION	384
CLK_DEF	384
COMPATIBLE_CODE	MA2

BPM	0	0	153.000
MET	0	0	4	4

BRK	1	0	4
TAP	1	96	4
TAP	1	192	4
TAP	1	288	4
TAP	2	0	4
TAP	2	96	4
STR	2	192	4
SI_	2	192	4	96	48	0
BRK	2	288	1
TAP	3	0	3
TAP	3	96	3
TAP	3	192	3
TAP	3	288	3
TAP	4	0	3
TAP	4	0	4
TAP	4	48	4
TAP	4	96	3
TAP	4	120	5
TAP	4	168	4
TAP	4	192	3
TAP	4	216	4
TAP	4	264	5
TAP	4	288	3
TAP	4	336	6
BRK	5	0	1
BRK	5	0	5
TAP	5	96	2
TAP	5	96	5
TAP	5	192	3
TAP	5	192	5
TAP	5	288	3
TAP	5	288	5
TAP	6	0	2
TAP	6	0	5
TAP	6	96	3
TAP	6	96	5
TAP	6	192	4
TAP	6	192	5
TAP	6	264	4
STR	6	288	3
SI_	6	288	3	96	48	7
TAP	6	336	2
BRK	7	0	1
TAP	7	0	3
STR	7	96	4
SI_	7	96	4	96	48	0
TAP	7	96	6
TAP	7	192	4
BRK	7	192	5
STR	7	288	1
SI_	7	288	1	96	48	5
TAP	7	288	3
STR	8	0	6
SI_	8	0	6	96	48	2
STR	8	96	0
SI_	8	96	0	96	48	4
BRK	8	192	7
STR	8	288	3
SXR	8	288	3	96	288	4
STR	8	288	5
SCR	8	288	5	96	288	4
TAP	10	0	2
TAP	10	0	6
TAP	10	48	1
TAP	10	96	1
HLD	10	120	3	48
TAP	10	168	2
TAP	10	192	4
TAP	10	216	3
TAP	10	240	5
TAP	10	288	6
HLD	10	312	4	48
TAP	10	360	5
TAP	11	0	3
TAP	11	24	4
TAP	11	48	2
TAP	11	96	1
HLD	11	120	3	48
TAP	11	168	2
TAP	11	192	4
TAP	11	216	3
TAP	11	240	5
TAP	11	288	5
TAP	11	312	4
TAP	11	360	6
TAP	12	0	7
TAP	12	48	1
TAP	12	48	5
TAP	12	96	1
HLD	12	120	3	48
TAP	12	168	2
TAP	12	192	4
TAP	12	216	3
TAP	12	240	5
TAP	12	288	5
TAP	12	312	7
TAP	12	360	7
TAP	13	0	5
HLD	13	48	0	48
HLD	13	48	4	48
HLD	13	120	2	48
HLD	13	120	7	48
HLD	13	192	4	48
HLD	13	192	5	48
HLD	13	264	2	48
HLD	13	264	3	48
TAP	13	336	1
TAP	13	336	5
BRK	14	0	1
BRK	14	0	5
TAP	14	48	1
TAP	14	96	1
HLD	14	120	3	48
TAP	14	168	2
TAP	14	192	4
TAP	14	216	3
TAP	14	240	5
TAP	14	288	6
HLD	14	312	4	48
TAP	14	360	5
TAP	15	0	3
TAP	15	24	4
TAP	15	48	2
TAP	15	96	1
HLD	15	120	3	48
TAP	15	168	2
TAP	15	192	4
TAP	15	216	3
TAP	15	240	5
TAP	15	288	6
TAP	15	312	7
TAP	15	360	1
TAP	16	0	0
TAP	16	48	2
TAP	16	48	6
TAP	16	96	6
HLD	16	120	4	48
TAP	16	168	5
TAP	16	192	3
TAP	16	216	4
TAP	16	240	2
TAP	16	288	1
TAP	16	312	0
TAP	16	360	6
TAP	17	0	7
TAP	17	48	4
TAP	17	48	5
TAP	17	120	1
TAP	17	120	3
BRK	17	192	0
BRK	17	192	1
BRK	17	264	3
BRK	17	264	4
BRK	17	336	6
BRK	17	336	7
STR	18	0	0
SCR	18	0	0	96	48	3
TAP	18	48	0
HLD	18	96	4	72
HLD	18	168	5	72
TAP	18	240	6
TAP	18	288	6
TAP	18	288	7
TAP	18	336	0
STR	19	0	1
SCR	19	0	1	96	48	4
TAP	19	48	1
HLD	19	96	5	72
HLD	19	168	6	72
TAP	19	240	7
TAP	19	288	0
TAP	19	288	7
TAP	19	336	1
STR	20	0	2
SCR	20	0	2	96	48	5
TAP	20	48	2
HLD	20	96	6	72
HLD	20	168	7	72
TAP	20	240	5
TAP	20	288	4
TAP	20	336	3
HLD	21	0	2	144
TAP	21	0	4
TAP	21	72	1
TAP	21	144	7
STR	21	192	3
SI_	21	192	3	96	48	1
SI_	21	192	3	96	48	5
TAP	21	192	6
STR	22	0	0
SCL	22	0	0	96	48	5
TAP	22	48	0
TAP	22	96	4
TAP	22	144	3
HLD	22	168	3	72
TAP	22	240	2
TAP	22	288	4
TAP	22	336	5
STR	23	0	6
SCL	23	0	6	96	48	3
TAP	23	48	6
TAP	23	96	2
TAP	23	144	1
HLD	23	168	1	72
TAP	23	240	0
TAP	23	288	7
TAP	23	336	6
STR	24	0	5
SCL	24	0	5	96	48	2
TAP	24	48	5
TAP	24	96	0
TAP	24	144	1
HLD	24	168	1	72
TAP	24	240	2
STR	24	288	3
SUR	24	288	3	96	144	4
TAP	24	336	4
TAP	25	0	5
STR	25	192	6
SCL	25	192	6	96	48	3
BRK	25	288	0
STR	26	0	2
SI_	26	0	2	96	48	0
TAP	26	72	3
TAP	26	96	2
TAP	26	144	4
STR	26	192	2
SI_	26	192	2	96	48	7
TAP	26	192	3
TAP	26	264	3
TAP	26	288	2
TAP	26	336	4
STR	27	0	2
SI_	27	0	2	96	48	0
TAP	27	0	3
TAP	27	72	3
STR	27	96	2
SCR	27	96	2	96	48	5
TAP	27	144	4
TAP	27	192	2
TAP	27	288	6
TAP	27	288	7
STR	28	0	5
SCR	28	0	5	96	48	7
TAP	28	72	4
TAP	28	96	5
TAP	28	144	2
STR	28	192	0
SI_	28	192	0	96	48	4
TAP	28	192	1
TAP	28	264	1
TAP	28	288	0
TAP	28	336	2
STR	29	0	3
SI_	29	0	3	96	48	0
STR	29	0	5
SUL	29	0	5	96	48	0
TAP	29	96	3
TAP	29	96	5
BRK	29	192	6
BRK	29	192	7
BRK	29	240	0
BRK	29	240	5
BRK	29	288	2
BRK	29	288	3
TAP	30	0	3
STR	30	0	5
SI_	30	0	5	96	48	7
TAP	30	72	4
TAP	30	96	5
TAP	30	144	3
STR	30	192	5
SI_	30	192	5	96	48	0
TAP	30	264	4
TAP	30	288	5
TAP	30	336	3
STR	31	0	5
SI_	31	0	5	96	48	7
TAP	31	72	4
TAP	31	96	5
TAP	31	144	3
STR	31	192	3
SI_	31	192	3	96	48	0
SI_	31	192	3	96	48	6
TAP	31	288	3
STR	32	0	5
SI_	32	0	5	96	48	3
TAP	32	72	0
TAP	32	96	5
TAP	32	144	1
STR	32	192	2
SI_	32	192	2	96	48	4
TAP	32	264	7
TAP	32	288	2
TAP	32	336	6
TAP	33	0	3
TAP	33	0	5
TAP	33	48	2
TAP	33	48	4
STR	33	96	0
SI_	33	96	0	96	24	4
STR	33	96	1
SI_	33	96	1	96	24	4
TAP	33	120	0
TAP	33	120	1
BRK	33	168	0
BRK	33	168	1
TAP	33	288	2
TAP	33	288	5
TAP	33	336	1
TAP	33	336	6
TAP	34	0	0
TAP	34	0	7
TAP	34	48	6
TAP	34	72	4
TAP	34	120	2
TAP	34	144	3
STR	34	192	1
SLR	34	192	1	96	96	7
TAP	34	216	0
TAP	34	240	2
TAP	34	288	1
TAP	34	288	3
TAP	34	336	5
STR	35	0	6
SI_	35	0	6	96	48	3
TAP	35	48	0
TAP	35	72	0
TAP	35	96	6
TAP	35	144	2
TAP	35	168	2
TAP	35	216	5
TAP	35	240	4
BRK	35	288	1
BRK	35	288	7
STR	36	0	2
SCL	36	0	2	96	48	7
TAP	36	0	3
TAP	36	48	4
TAP	36	72	4
TAP	36	96	2
TAP	36	144	6
STR	36	192	5
SI_	36	192	5	96	48	0
TAP	36	240	4
TAP	36	288	3
TAP	36	288	5
TAP	36	336	2
TAP	36	360	2
TAP	37	0	7
TAP	37	48	0
TAP	37	48	6
TAP	37	96	1
TAP	37	120	3
TAP	37	168	2
TAP	37	168	4
TAP	37	216	3
TAP	37	216	5
TAP	37	264	6
TAP	37	288	7
TAP	37	336	0
TAP	37	336	7
TAP	38	0	0
TAP	38	0	1
TAP	38	48	2
TAP	38	72	3
TAP	38	120	5
TAP	38	144	4
STR	38	192	6
SLL	38	192	6	96	96	0
TAP	38	216	7
TAP	38	240	5
TAP	38	288	4
TAP	38	288	6
TAP	38	336	2
TAP	39	0	2
TAP	39	48	1
TAP	39	72	0
TAP	39	96	1
TAP	39	144	2
TAP	39	168	3
TAP	39	216	6
TAP	39	240	7
TAP	39	288	4
STR	39	288	5
SCR	39	288	5	96	48	0
TAP	39	336	3
TAP	39	360	3
TAP	40	0	5
TAP	40	48	1
STR	40	96	2
SCL	40	96	2	96	48	7
TAP	40	144	4
TAP	40	168	4
TAP	40	192	2
TAP	40	240	6
TAP	40	288	6
TAP	40	336	0
TAP	40	336	6
STR	41	0	1
SI_	41	0	1	96	48	4
STR	41	0	5
SI_	41	0	5	96	48	0
TAP	41	12	2
TAP	41	24	3
TAP	41	36	4
TAP	41	48	5
TAP	41	60	6
TAP	41	72	7
TAP	41	84	0
TAP	41	96	1
BRK	41	192	2
BRK	41	192	7
TAP	41	288	1
TAP	41	288	6
TAP	41	336	2
TAP	41	336	5
TAP	42	0	3
TAP	42	0	4
TAP	42	48	1
TAP	42	72	0
TAP	42	120	6
TAP	42	144	7
STR	42	192	5
SLR	42	192	5	96	96	3
TAP	42	216	4
TAP	42	240	6
TAP	42	288	3
TAP	42	288	5
TAP	42	336	1
STR	43	0	2
SI_	43	0	2	96	48	7
TAP	43	48	4
TAP	43	72	4
TAP	43	96	2
TAP	43	144	6
TAP	43	168	6
TAP	43	216	1
TAP	43	240	0
BRK	43	288	3
BRK	43	288	7
STR	44	0	6
SCL	44	0	6	96	48	3
TAP	44	0	7
TAP	44	48	0
TAP	44	72	0
TAP	44	96	6
TAP	44	144	2
STR	44	192	1
SI_	44	192	1	96	48	4
TAP	44	240	0
TAP	44	288	1
TAP	44	288	7
TAP	44	336	6
TAP	44	360	6
TAP	45	0	3
TAP	45	48	2
TAP	45	48	4
TAP	45	96	1
TAP	45	120	0
TAP	45	168	1
TAP	45	168	7
TAP	45	216	0
TAP	45	216	6
TAP	45	264	5
TAP	45	288	4
TAP	45	336	3
TAP	45	336	6
TAP	46	0	2
TAP	46	0	7
TAP	46	48	0
TAP	46	72	1
TAP	46	120	6
TAP	46	144	4
STR	46	192	2
SLL	46	192	2	96	96	4
TAP	46	216	3
TAP	46	240	1
TAP	46	288	2
TAP	46	288	4
TAP	46	336	6
TAP	47	0	6
TAP	47	48	5
TAP	47	72	4
TAP	47	96	5
TAP	47	144	0
TAP	47	168	7
TAP	47	216	2
TAP	47	240	3
TAP	47	288	3
STR	47	288	6
SI_	47	288	6	96	48	2
TAP	47	336	4
TAP	47	360	4
BRK	48	0	6
TAP	48	48	0
STR	48	96	1
SI_	48	96	1	96	48	4
TAP	48	144	3
TAP	48	168	3
BRK	48	192	1
TAP	48	240	7
TAP	48	288	7
TAP	48	336	1
TAP	48	336	7
STR	49	0	2
SI_	49	0	2	96	48	7
STR	49	0	6
SI_	49	0	6	96	48	3
TAP	49	12	5
TAP	49	24	4
TAP	49	36	3
TAP	49	48	2
TAP	49	60	1
TAP	49	72	0
TAP	49	84	7
TAP	49	96	6
BRK	49	192	0
BRK	49	192	4
TAP	49	204	1
TAP	49	204	5
TAP	49	216	2
TAP	49	216	6
TAP	49	228	3
TAP	49	228	7
STR	49	288	2
SUR	49	288	2	96	288	3
STR	49	288	6
SUR	49	288	6	96	288	7
TAP	51	0	1
TAP	51	0	5
TAP	51	48	1
TAP	51	48	5
TAP	51	96	1
TAP	51	120	3
TAP	51	168	3
TAP	51	192	2
TAP	51	216	4
TAP	51	240	3
TAP	51	288	6
TAP	51	312	4
TAP	51	360	4
TAP	52	0	5
TAP	52	24	3
TAP	52	48	4
TAP	52	96	1
TAP	52	120	3
TAP	52	168	3
TAP	52	192	2
TAP	52	216	4
TAP	52	240	3
TAP	52	288	6
TAP	52	312	7
TAP	52	360	1
TAP	53	0	0
TAP	53	48	1
TAP	53	48	7
TAP	53	96	1
TAP	53	120	3
TAP	53	168	3
TAP	53	192	2
TAP	53	216	4
TAP	53	240	3
TAP	53	288	6
TAP	53	312	7
TAP	53	360	7
TAP	54	0	5
HLD	54	48	0	48
HLD	54	48	4	48
HLD	54	120	2	48
HLD	54	120	7	48
HLD	54	192	4	48
HLD	54	192	5	48
HLD	54	264	2	48
HLD	54	264	3	48
TAP	54	336	1
TAP	54	336	5
BRK	55	0	0
BRK	55	0	4
TAP	55	48	0
TAP	55	48	4
TAP	55	96	1
TAP	55	120	3
TAP	55	168	3
TAP	55	192	2
TAP	55	216	4
TAP	55	240	3
TAP	55	288	6
TAP	55	312	4
TAP	55	360	4
TAP	56	0	5
TAP	56	24	3
TAP	56	48	4
TAP	56	96	1
TAP	56	120	3
TAP	56	168	3
TAP	56	192	2
TAP	56	216	4
TAP	56	240	3
TAP	56	288	6
TAP	56	312	7
TAP	56	360	1
TAP	57	0	0
TAP	57	48	2
TAP	57	48	6
TAP	57	96	5
TAP	57	120	4
TAP	57	168	4
TAP	57	192	5
TAP	57	216	3
TAP	57	240	4
TAP	57	288	1
TAP	57	312	3
TAP	57	360	7
TAP	58	0	6
TAP	58	48	4
TAP	58	48	6
TAP	58	120	1
TAP	58	120	3
BRK	58	192	0
BRK	58	192	1
BRK	58	264	3
BRK	58	264	4
BRK	58	336	6
BRK	58	336	7
STR	59	0	0
SI_	59	0	0	96	48	4
TAP	59	48	3
TAP	59	72	3
TAP	59	96	0
TAP	59	144	5
STR	59	192	7
SI_	59	192	7	96	48	2
TAP	59	240	2
TAP	59	264	2
TAP	59	288	7
TAP	59	336	1
STR	60	0	0
SCL	60	0	0	96	48	5
TAP	60	0	3
TAP	60	96	0
STR	60	96	4
SI_	60	96	4	96	48	0
STR	60	192	1
SCR	60	192	1	96	48	4
TAP	60	192	4
TAP	60	288	1
BRK	60	288	7
HLD	61	0	6	48
TAP	61	48	7
TAP	61	72	7
HLD	61	96	4	48
TAP	61	144	3
TAP	61	168	5
HLD	61	192	1	48
TAP	61	240	0
TAP	61	264	0
HLD	61	288	2	48
TAP	61	336	3
BRK	62	0	1
BRK	62	0	4
BRK	62	48	3
BRK	62	48	6
BST	62	96	7
SF_	62	96	7	96	48	3
BRK	62	144	0
BRK	62	144	6
BRK	62	168	0
BRK	62	168	6
TAP	62	288	1
TAP	62	288	5
TAP	62	336	0
TAP	62	360	0
STR	63	0	7
SI_	63	0	7	96	48	3
TAP	63	48	4
TAP	63	72	4
TAP	63	96	7
TAP	63	144	2
STR	63	192	0
SI_	63	192	0	96	48	4
TAP	63	240	5
TAP	63	264	5
STR	63	288	0
SCR	63	288	0	96	144	7
TAP	63	336	6
TAP	64	0	0
TAP	64	0	7
TAP	64	192	0
TAP	64	192	1
TAP	64	240	2
TAP	64	288	3
TAP	64	336	4
STR	65	0	5
SI_	65	0	5	96	48	7
STR	65	96	3
SI_	65	96	3	96	48	1
TAP	65	96	5
TAP	65	192	3
STR	65	192	4
SI_	65	192	4	96	48	0
STR	65	288	1
SI_	65	288	1	96	48	5
TAP	65	288	4
TAP	66	0	1
BST	66	0	6
SI_	66	0	6	96	48	2
BST	66	96	3
SCR	66	96	3	96	48	6
TAP	66	96	6
TAP	66	192	3
BST	66	192	7
SF_	66	192	7	96	48	3
BRK	66	288	7
TAP	67	0	1
TAP	67	0	5
TAP	67	48	1
TAP	67	48	5
TAP	67	96	6
TAP	67	120	4
TAP	67	168	4
TAP	67	192	5
TAP	67	216	3
TAP	67	240	4
TAP	67	288	1
TAP	67	312	3
TAP	67	360	3
TAP	68	0	1
TAP	68	24	5
TAP	68	48	3
TAP	68	96	6
TAP	68	120	4
TAP	68	168	4
TAP	68	192	6
TAP	68	216	2
TAP	68	240	4
TAP	68	288	1
TAP	68	312	0
TAP	68	360	6
TAP	69	0	7
TAP	69	48	0
TAP	69	48	4
TAP	69	96	1
TAP	69	120	3
TAP	69	168	3
TAP	69	192	1
TAP	69	216	5
TAP	69	240	3
TAP	69	288	6
TAP	69	312	7
TAP	69	360	1
TAP	70	0	0
HLD	70	48	3	48
HLD	70	48	7	48
HLD	70	120	0	48
HLD	70	120	5	48
HLD	70	192	2	48
HLD	70	192	3	48
HLD	70	264	4	48
HLD	70	264	5	48
TAP	70	336	2
TAP	70	336	6
BRK	71	0	3
BRK	71	0	7
TAP	71	48	3
TAP	71	48	7
TAP	71	96	6
TAP	71	120	4
TAP	71	168	4
TAP	71	192	5
TAP	71	216	3
TAP	71	240	4
TAP	71	288	1
TAP	71	312	3
TAP	71	360	3
TAP	72	0	1
TAP	72	24	5
TAP	72	48	3
TAP	72	96	6
TAP	72	120	4
TAP	72	168	4
TAP	72	192	6
TAP	72	216	2
TAP	72	240	4
TAP	72	288	1
TAP	72	312	0
TAP	72	360	6
TAP	73	0	7
TAP	73	48	1
TAP	73	48	4
TAP	73	96	2
TAP	73	120	3
TAP	73	168	3
TAP	73	192	1
TAP	73	216	5
TAP	73	240	3
TAP	73	288	6
TAP	73	312	7
TAP	73	360	1
TAP	74	0	0
TAP	74	48	2
TAP	74	48	3
TAP	74	120	4
TAP	74	120	6
BRK	74	192	6
BRK	74	192	7
BRK	74	264	3
BRK	74	264	4
BRK	74	336	0
BRK	74	336	1
TAP	75	0	2
TAP	75	0	7
TAP	75	48	3
STR	75	48	6
SI_	75	48	6	96	24	2
STR	75	120	1
SI_	75	120	1	96	24	5
TAP	75	120	6
TAP	75	192	1
STR	75	192	7
SI_	75	192	7	96	24	3
STR	75	264	0
SF_	75	264	0	96	24	4
TAP	75	264	7
BRK	75	336	0

T_REC_TAP	570
T_REC_BRK	61
T_REC_XTP	0
T_REC_HLD	46
T_REC_XHO	0
T_REC_STR	69
T_REC_BST	4
T_REC_XST	0
T_REC_TTP	0
T_REC_THO	0
T_REC_SLD	75
T_REC_ALL	825
T_NUM_TAP	639
T_NUM_BRK	65
T_NUM_HLD	46
T_NUM_SLD	75
T_NUM_ALL	825
T_JUDGE_TAP	704
T_JUDGE_HLD	57
T_JUDGE_SLD	75
T_JUDGE_ALL	836
TTM_EACHPAIRS	138
TTM_SCR_TAP	319500
TTM_SCR_BRK	169000
TTM_SCR_HLD	46000
TTM_SCR_SLD	112500
TTM_SCR_ALL	647000
TTM_SCR_S	621300
TTM_SCR_SS	640500
TTM_RAT_ACV	10101

