VERSION	0.00.00	1.03.00
FES_MODE	0
BPM_DEF	153.000	153.000	153.000	153.000
MET_DEF	4	4
RESOLUTION	384
CLK_DEF	384
COMPATIBLE_CODE	MA2

BPM	0	0	153.000
MET	0	0	4	4

TAP	1	0	4
TAP	1	96	4
TAP	1	192	4
TAP	1	288	4
TAP	2	0	4
TAP	2	96	4
STR	2	192	4
SI_	2	192	4	96	48	0
BRK	2	288	6
TAP	3	0	2
TAP	3	96	2
TAP	3	192	2
TAP	3	288	2
TAP	4	0	3
TAP	4	48	4
TAP	4	96	3
TAP	4	120	4
TAP	4	168	2
TAP	4	216	1
TAP	4	216	4
TAP	4	264	5
TAP	4	288	4
TAP	4	336	3
TAP	4	336	6
BRK	5	0	4
TAP	5	96	4
TAP	5	192	4
TAP	5	288	4
TAP	6	0	4
TAP	6	96	4
TAP	6	192	4
TAP	6	288	2
TAP	6	288	5
STR	7	0	2
SI_	7	0	2	96	48	7
STR	7	0	3
SI_	7	0	3	96	48	7
STR	7	192	4
SI_	7	192	4	96	48	0
STR	7	192	5
SI_	7	192	5	96	48	0
STR	8	0	0
SI_	8	0	0	96	48	2
STR	8	0	7
SI_	8	0	7	96	48	3
STR	8	96	0
SI_	8	96	0	96	48	4
STR	8	96	7
SI_	8	96	7	96	48	5
BRK	8	192	0
BRK	8	192	7
STR	8	288	3
SCL	8	288	3	96	288	4
STR	8	288	4
SUL	8	288	4	96	288	3
TAP	9	0	3
TAP	9	0	4
TAP	10	0	2
TAP	10	48	1
TAP	10	48	3
TAP	10	96	5
TAP	10	120	4
TAP	10	168	3
TAP	10	168	6
TAP	10	216	2
TAP	10	240	3
TAP	10	288	3
TAP	10	312	2
TAP	10	360	1
TAP	10	360	4
TAP	11	24	6
TAP	11	48	7
TAP	11	96	7
TAP	11	120	6
TAP	11	168	0
TAP	11	168	5
TAP	11	216	1
TAP	11	240	0
TAP	11	288	0
TAP	11	312	1
TAP	11	360	2
TAP	11	360	7
TAP	12	24	3
TAP	12	48	4
TAP	12	96	4
TAP	12	120	3
TAP	12	168	2
TAP	12	168	5
TAP	12	216	7
TAP	12	240	0
TAP	12	288	0
TAP	12	312	7
TAP	12	360	1
TAP	13	0	2
TAP	13	0	7
TAP	13	48	1
TAP	13	48	5
TAP	13	120	3
STR	13	120	6
SI_	13	120	6	96	24	2
STR	13	192	0
SI_	13	192	0	96	24	4
TAP	13	192	6
TAP	13	264	0
TAP	13	264	5
BRK	13	336	7
TAP	14	0	5
TAP	14	48	4
TAP	14	48	6
TAP	14	96	2
TAP	14	120	3
TAP	14	168	1
TAP	14	168	4
TAP	14	216	5
TAP	14	240	4
TAP	14	288	4
TAP	14	312	5
TAP	14	360	3
TAP	14	360	6
TAP	15	24	1
TAP	15	48	0
TAP	15	96	0
TAP	15	120	1
TAP	15	168	2
TAP	15	168	7
TAP	15	216	6
TAP	15	240	7
TAP	15	288	7
TAP	15	312	6
TAP	15	360	0
TAP	15	360	5
TAP	16	24	4
TAP	16	48	3
TAP	16	96	3
TAP	16	120	4
TAP	16	168	2
TAP	16	168	5
TAP	16	216	0
TAP	16	240	7
TAP	16	288	7
TAP	16	312	0
TAP	16	360	6
TAP	17	0	0
TAP	17	0	5
TAP	17	48	2
TAP	17	48	6
TAP	17	120	0
TAP	17	120	4
BRK	17	192	3
BRK	17	192	6
BRK	17	264	1
BRK	17	264	4
BRK	17	336	3
BRK	17	336	7
TAP	18	0	2
TAP	18	48	2
TAP	18	96	1
TAP	18	96	4
STR	18	144	2
SCL	18	144	2	96	48	7
TAP	18	168	3
TAP	18	216	3
TAP	18	240	2
TAP	18	288	4
TAP	18	336	5
TAP	19	0	5
TAP	19	48	5
TAP	19	96	3
TAP	19	96	6
STR	19	144	5
SCR	19	144	5	96	48	0
TAP	19	168	4
TAP	19	216	4
TAP	19	240	5
TAP	19	288	3
TAP	19	336	2
TAP	20	0	1
TAP	20	48	1
TAP	20	96	2
TAP	20	96	7
STR	20	144	1
SCR	20	144	1	96	48	4
TAP	20	168	0
TAP	20	216	0
TAP	20	240	1
STR	20	288	7
SI_	20	288	7	96	48	3
STR	21	0	0
SI_	21	0	0	96	48	4
TAP	21	0	7
TAP	21	96	0
STR	21	96	6
SXL	21	96	6	96	96	3
TAP	21	192	1
TAP	21	192	6
BRK	21	288	2
TAP	22	0	5
TAP	22	48	5
TAP	22	96	3
TAP	22	96	6
STR	22	144	5
SCR	22	144	5	96	48	0
TAP	22	168	4
TAP	22	216	4
TAP	22	240	5
TAP	22	288	3
TAP	22	336	2
TAP	23	0	2
TAP	23	48	2
TAP	23	96	1
TAP	23	96	4
STR	23	144	2
SCL	23	144	2	96	48	7
TAP	23	168	3
TAP	23	216	3
TAP	23	240	2
TAP	23	288	4
TAP	23	336	5
TAP	24	0	6
TAP	24	48	6
TAP	24	96	0
TAP	24	96	5
STR	24	144	6
SCL	24	144	6	96	48	3
TAP	24	168	7
TAP	24	216	7
TAP	24	240	6
STR	24	288	0
SXL	24	288	0	96	120	4
SXR	24	288	0	96	120	4
TAP	25	0	0
STR	25	192	6
SI_	25	192	6	96	48	2
STR	25	192	7
SI_	25	192	7	96	48	3
BRK	25	288	6
BRK	25	288	7
TAP	26	0	2
HLD	26	0	4	144
TAP	26	72	5
TAP	26	144	0
HLD	26	192	3	144
TAP	26	192	5
TAP	26	264	2
TAP	26	336	7
TAP	27	0	2
HLD	27	0	4	144
TAP	27	72	5
TAP	27	144	0
STR	27	192	0
SI_	27	192	0	96	48	4
STR	27	192	1
SI_	27	192	1	96	48	4
TAP	27	288	0
TAP	27	288	1
HLD	28	0	3	144
TAP	28	0	5
TAP	28	72	2
TAP	28	144	7
TAP	28	192	2
HLD	28	192	4	144
TAP	28	264	5
TAP	28	336	0
STR	29	0	1
SI_	29	0	1	96	48	4
STR	29	0	5
SI_	29	0	5	96	48	0
TAP	29	96	1
TAP	29	96	5
BRK	29	192	6
BRK	29	192	7
BRK	29	240	0
BRK	29	240	5
BRK	29	288	1
BRK	29	288	4
HLD	30	0	0	144
TAP	30	0	6
TAP	30	72	2
TAP	30	144	4
TAP	30	192	1
HLD	30	192	7	144
TAP	30	264	5
TAP	30	336	3
HLD	31	0	0	144
TAP	31	0	6
TAP	31	72	2
TAP	31	144	4
STR	31	192	6
SI_	31	192	6	96	48	3
STR	31	192	7
SI_	31	192	7	96	48	3
TAP	31	288	6
TAP	31	288	7
TAP	32	0	1
HLD	32	0	7	144
TAP	32	72	5
TAP	32	144	3
HLD	32	192	0	144
TAP	32	192	6
TAP	32	264	2
TAP	32	336	4
TAP	33	0	1
TAP	33	0	6
TAP	33	48	2
TAP	33	48	5
STR	33	96	0
SI_	33	96	0	96	48	4
STR	33	96	7
SI_	33	96	7	96	48	3
TAP	33	120	0
TAP	33	120	7
BRK	33	168	0
BRK	33	168	7
BRK	33	288	1
BRK	33	288	6
STR	34	0	1
SI_	34	0	1	96	48	5
TAP	34	0	3
STR	34	72	5
SI_	34	72	5	96	48	1
TAP	34	144	7
HLD	34	216	6	72
STR	34	288	7
SI_	34	288	7	96	48	3
TAP	34	336	0
TAP	35	0	1
TAP	35	0	7
STR	35	72	2
SXR	35	72	2	96	96	4
TAP	35	144	2
TAP	35	144	5
BRK	35	288	7
TAP	36	0	0
TAP	36	0	5
STR	36	72	2
SCR	36	72	2	96	48	5
TAP	36	72	7
TAP	36	144	7
TAP	36	240	6
TAP	36	288	7
TAP	36	336	0
TAP	36	360	0
TAP	37	0	5
TAP	37	48	3
TAP	37	96	5
TAP	37	120	4
TAP	37	120	6
TAP	37	168	3
TAP	37	216	4
TAP	37	264	2
TAP	37	288	1
TAP	37	288	3
TAP	37	336	5
TAP	38	0	4
STR	38	0	6
SI_	38	0	6	96	48	2
STR	38	72	2
SI_	38	72	2	96	48	6
TAP	38	144	0
HLD	38	216	1	72
STR	38	288	0
SI_	38	288	0	96	48	4
TAP	38	336	7
TAP	39	0	0
TAP	39	0	6
STR	39	72	5
SXL	39	72	5	96	96	3
TAP	39	144	2
TAP	39	144	5
STR	39	288	1
SI_	39	288	1	96	48	5
TAP	39	336	7
TAP	39	360	7
STR	40	96	6
SI_	40	96	6	96	48	2
TAP	40	144	0
TAP	40	168	0
TAP	40	240	0
TAP	40	288	7
TAP	40	336	1
TAP	40	336	6
BST	41	0	0
SCR	41	0	0	96	48	3
BST	41	0	7
SCL	41	0	7	96	48	4
BST	41	96	0
SI_	41	96	0	96	48	4
BST	41	96	7
SI_	41	96	7	96	48	3
BRK	41	192	0
BRK	41	192	7
TAP	41	288	2
TAP	41	288	5
TAP	41	336	6
STR	42	0	5
SI_	42	0	5	96	48	1
TAP	42	0	7
STR	42	72	1
SI_	42	72	1	96	48	5
TAP	42	144	3
HLD	42	216	2	72
STR	42	288	3
SI_	42	288	3	96	48	7
TAP	42	336	4
TAP	43	0	3
TAP	43	0	5
STR	43	72	6
SXR	43	72	6	96	96	0
TAP	43	144	1
TAP	43	144	6
BRK	43	288	3
TAP	44	0	1
TAP	44	0	4
TAP	44	72	3
STR	44	72	6
SCR	44	72	6	96	48	1
TAP	44	144	3
TAP	44	240	2
TAP	44	288	3
TAP	44	336	4
TAP	44	360	4
TAP	45	0	1
TAP	45	48	7
TAP	45	96	1
TAP	45	120	0
TAP	45	120	2
TAP	45	168	7
TAP	45	216	0
TAP	45	264	6
TAP	45	288	5
TAP	45	288	7
TAP	45	336	1
TAP	46	0	0
STR	46	0	2
SI_	46	0	2	96	48	6
STR	46	72	6
SI_	46	72	6	96	48	2
TAP	46	144	4
HLD	46	216	5	72
STR	46	288	4
SI_	46	288	4	96	48	0
TAP	46	336	3
TAP	47	0	2
TAP	47	0	4
STR	47	72	1
SXL	47	72	1	96	96	7
TAP	47	144	1
TAP	47	144	6
STR	47	288	5
SI_	47	288	5	96	48	1
TAP	47	336	3
TAP	47	360	3
STR	48	96	2
SI_	48	96	2	96	48	6
TAP	48	144	4
TAP	48	168	4
TAP	48	240	4
TAP	48	288	3
TAP	48	336	2
TAP	48	336	5
BST	49	0	0
SCR	49	0	0	96	48	3
BST	49	0	7
SCL	49	0	7	96	48	4
BST	49	96	0
SI_	49	96	0	96	48	4
BST	49	96	7
SI_	49	96	7	96	48	3
BRK	49	192	0
BRK	49	192	7
STR	49	288	0
SUL	49	288	0	96	288	7
STR	49	288	7
SCL	49	288	7	96	288	0
TAP	51	0	5
TAP	51	48	0
TAP	51	48	7
TAP	51	96	1
TAP	51	120	0
TAP	51	168	2
TAP	51	168	7
TAP	51	216	6
TAP	51	240	7
TAP	51	288	7
TAP	51	312	6
TAP	51	360	0
TAP	51	360	5
TAP	52	24	2
TAP	52	48	3
TAP	52	96	3
TAP	52	120	2
TAP	52	168	1
TAP	52	168	4
TAP	52	216	5
TAP	52	240	4
TAP	52	288	4
TAP	52	312	5
TAP	52	360	3
TAP	52	360	6
TAP	53	24	4
TAP	53	48	3
TAP	53	96	3
TAP	53	120	4
TAP	53	168	2
TAP	53	168	5
TAP	53	216	6
TAP	53	240	0
TAP	53	288	1
TAP	53	312	7
TAP	53	360	6
TAP	54	0	0
TAP	54	0	5
TAP	54	48	2
TAP	54	48	6
STR	54	120	1
SI_	54	120	1	96	24	5
TAP	54	120	4
TAP	54	192	1
STR	54	192	7
SI_	54	192	7	96	24	3
TAP	54	264	2
TAP	54	264	7
BRK	54	336	0
TAP	55	0	2
TAP	55	48	0
TAP	55	48	7
TAP	55	96	6
TAP	55	120	7
TAP	55	168	0
TAP	55	168	5
TAP	55	216	1
TAP	55	240	0
TAP	55	288	0
TAP	55	312	1
TAP	55	360	2
TAP	55	360	7
TAP	56	24	5
TAP	56	48	4
TAP	56	96	4
TAP	56	120	5
TAP	56	168	3
TAP	56	168	6
TAP	56	216	2
TAP	56	240	3
TAP	56	288	3
TAP	56	312	2
TAP	56	360	1
TAP	56	360	4
TAP	57	24	3
TAP	57	48	4
TAP	57	96	4
TAP	57	120	3
TAP	57	168	2
TAP	57	168	5
TAP	57	216	1
TAP	57	240	7
TAP	57	288	6
TAP	57	312	0
TAP	57	360	1
TAP	58	0	2
TAP	58	0	7
TAP	58	48	1
TAP	58	48	5
TAP	58	120	3
TAP	58	120	6
BRK	58	192	1
BRK	58	192	4
BRK	58	264	2
BRK	58	264	6
BRK	58	336	0
BRK	58	336	5
HLD	59	0	2	96
TAP	59	48	7
HLD	59	96	5	96
TAP	59	144	0
HLD	59	192	3	96
TAP	59	240	6
HLD	59	288	4	96
TAP	59	336	1
TAP	60	0	2
TAP	60	48	3
TAP	60	96	2
TAP	60	96	4
TAP	60	144	3
TAP	60	192	5
TAP	60	240	4
TAP	60	288	3
TAP	60	288	5
TAP	60	336	6
STR	61	0	3
SI_	61	0	3	96	48	6
TAP	61	48	2
TAP	61	96	1
TAP	61	96	3
STR	61	192	4
SI_	61	192	4	96	48	1
TAP	61	240	5
TAP	61	288	4
TAP	61	288	6
TAP	62	0	6
TAP	62	0	7
TAP	62	48	3
TAP	62	48	4
STR	62	96	0
SXR	62	96	0	96	96	5
STR	62	96	1
SXL	62	96	1	96	96	4
TAP	62	144	0
TAP	62	144	1
TAP	62	168	0
TAP	62	168	1
HLD	63	0	7	96
TAP	63	48	2
HLD	63	96	0	96
TAP	63	144	5
HLD	63	192	6	96
TAP	63	240	3
TAP	63	288	1
STR	63	336	4
SXL	63	336	4	96	144	0
SXR	63	336	4	96	144	0
TAP	64	0	3
TAP	64	0	5
TAP	64	48	4
TAP	64	240	7
TAP	64	288	0
TAP	64	336	6
TAP	65	0	0
STR	65	0	2
SCR	65	0	2	96	48	5
TAP	65	96	7
STR	65	192	6
SUL	65	192	6	96	48	1
TAP	65	192	7
TAP	65	288	0
TAP	66	0	0
STR	66	0	1
SI_	66	0	1	96	48	5
STR	66	96	0
SI_	66	96	0	96	48	4
TAP	66	96	1
TAP	66	192	0
STR	66	192	7
SF_	66	192	7	96	48	3
BRK	66	288	7
TAP	67	0	6
TAP	67	48	5
TAP	67	48	7
TAP	67	96	2
TAP	67	120	3
TAP	67	168	3
STR	67	216	6
SI_	67	216	6	96	48	3
TAP	67	240	7
TAP	67	288	7
TAP	67	312	6
TAP	67	360	0
STR	68	24	1
SI_	68	24	1	96	48	4
TAP	68	48	0
TAP	68	96	0
TAP	68	120	1
TAP	68	168	7
STR	68	216	6
SI_	68	216	6	96	48	3
TAP	68	240	7
TAP	68	288	7
TAP	68	312	6
TAP	68	360	0
STR	69	24	2
SI_	69	24	2	96	48	7
TAP	69	48	3
TAP	69	96	3
TAP	69	120	2
TAP	69	168	4
STR	69	216	5
SI_	69	216	5	96	48	0
TAP	69	240	4
TAP	69	288	4
TAP	69	312	5
TAP	69	360	3
TAP	70	0	3
TAP	70	48	2
TAP	70	48	6
STR	70	120	1
SI_	70	120	1	96	24	5
TAP	70	120	4
TAP	70	192	1
STR	70	192	7
SI_	70	192	7	96	24	3
TAP	70	264	2
TAP	70	264	7
BRK	70	336	0
TAP	71	0	1
TAP	71	48	0
TAP	71	48	2
TAP	71	96	5
TAP	71	120	4
TAP	71	168	4
STR	71	216	1
SI_	71	216	1	96	48	5
TAP	71	240	0
TAP	71	288	0
TAP	71	312	1
TAP	71	360	7
STR	72	24	6
SI_	72	24	6	96	48	2
TAP	72	48	7
TAP	72	96	7
TAP	72	120	6
TAP	72	168	0
STR	72	216	1
SI_	72	216	1	96	48	4
TAP	72	240	0
TAP	72	288	0
TAP	72	312	1
TAP	72	360	7
STR	73	24	5
SI_	73	24	5	96	48	1
TAP	73	48	4
TAP	73	96	4
TAP	73	120	5
TAP	73	168	3
STR	73	216	2
SI_	73	216	2	96	48	6
TAP	73	240	3
TAP	73	288	3
TAP	73	312	2
TAP	73	360	4
TAP	74	0	4
TAP	74	48	1
TAP	74	48	5
TAP	74	120	3
STR	74	120	6
SI_	74	120	6	96	24	2
STR	74	192	0
SI_	74	192	0	96	24	4
TAP	74	192	6
TAP	74	264	0
TAP	74	264	5
BRK	74	336	7
TAP	75	0	3
TAP	75	0	5
TAP	75	48	1
TAP	75	48	4
TAP	75	120	3
TAP	75	120	6
TAP	75	192	1
TAP	75	192	5
STR	75	264	0
SI_	75	264	0	96	24	4
STR	75	264	7
SI_	75	264	7	96	24	3
BRK	75	336	0
BRK	75	336	7

T_REC_TAP	504
T_REC_BRK	42
T_REC_XTP	0
T_REC_HLD	21
T_REC_XHO	0
T_REC_STR	85
T_REC_BST	8
T_REC_XST	0
T_REC_TTP	0
T_REC_THO	0
T_REC_SLD	95
T_REC_ALL	755
T_NUM_TAP	589
T_NUM_BRK	50
T_NUM_HLD	21
T_NUM_SLD	95
T_NUM_ALL	755
T_JUDGE_TAP	639
T_JUDGE_HLD	52
T_JUDGE_SLD	95
T_JUDGE_ALL	786
TTM_EACHPAIRS	153
TTM_SCR_TAP	294500
TTM_SCR_BRK	130000
TTM_SCR_HLD	21000
TTM_SCR_SLD	142500
TTM_SCR_ALL	588000
TTM_SCR_S	565550
TTM_SCR_SS	583000
TTM_RAT_ACV	10085

