VERSION	0.00.00	1.03.00
FES_MODE	0
BPM_DEF	153.000	153.000	153.000	153.000
MET_DEF	4	4
RESOLUTION	384
CLK_DEF	384
COMPATIBLE_CODE	MA2

BPM	0	0	153.000
MET	0	0	4	4

TAP	1	0	4
HLD	1	0	5	288
TAP	1	96	3
TAP	1	192	2
TAP	1	288	1
HLD	2	0	2	288
TAP	2	0	3
TAP	2	96	4
TAP	2	192	5
BRK	2	288	7
HLD	3	0	5	96
TAP	3	96	4
HLD	3	192	2	96
TAP	3	288	3
TAP	4	0	5
TAP	4	48	4
HLD	4	96	5	96
TAP	4	192	6
TAP	4	240	5
TAP	4	288	6
HLD	5	0	6	288
TAP	5	0	7
TAP	5	96	0
TAP	5	192	1
TAP	5	288	2
TAP	6	0	0
HLD	6	0	1	288
TAP	6	96	7
TAP	6	192	6
TAP	6	288	5
STR	7	0	0
SI_	7	0	0	96	48	3
STR	7	0	7
SI_	7	0	7	96	48	4
STR	7	192	1
SI_	7	192	1	96	48	3
STR	7	192	6
SI_	7	192	6	96	48	4
TAP	8	0	0
TAP	8	0	7
TAP	8	96	3
TAP	8	96	4
BRK	8	192	1
BRK	8	192	6
STR	9	0	4
SCR	9	0	4	96	192	3
SUR	9	0	4	96	204	3
STR	10	0	1
SI_	10	0	1	96	48	4
STR	10	96	0
SI_	10	96	0	96	48	5
STR	10	192	1
SI_	10	192	1	96	48	3
TAP	10	288	0
STR	11	0	6
SI_	11	0	6	96	48	3
STR	11	96	7
SI_	11	96	7	96	48	2
STR	11	192	6
SI_	11	192	6	96	48	4
TAP	11	288	7
STR	12	0	0
SI_	12	0	0	96	48	3
STR	12	96	7
SI_	12	96	7	96	48	4
STR	12	192	0
SI_	12	192	0	96	48	2
TAP	12	288	7
STR	13	0	6
SCL	13	0	6	96	96	2
SUL	13	0	6	96	96	1
BRK	13	288	1
BRK	13	288	7
STR	14	0	6
SI_	14	0	6	96	48	3
STR	14	96	7
SI_	14	96	7	96	48	2
STR	14	192	6
SI_	14	192	6	96	48	4
TAP	14	288	7
STR	15	0	1
SI_	15	0	1	96	48	4
STR	15	96	0
SI_	15	96	0	96	48	5
STR	15	192	1
SI_	15	192	1	96	48	3
TAP	15	288	0
STR	16	0	7
SI_	16	0	7	96	48	4
STR	16	96	0
SI_	16	96	0	96	48	3
STR	16	192	7
SI_	16	192	7	96	48	5
TAP	16	288	0
STR	17	0	0
SCL	17	0	0	96	96	5
STR	17	0	1
SCR	17	0	1	96	96	4
BRK	17	288	3
BRK	17	288	6
HLD	18	0	6	96
HLD	18	96	5	96
STR	18	192	4
SI_	18	192	4	96	48	7
TAP	18	288	3
HLD	19	0	0	96
HLD	19	96	7	96
STR	19	192	6
SI_	19	192	6	96	48	1
TAP	19	288	5
STR	20	0	5
SI_	20	0	5	96	48	0
TAP	20	96	4
STR	20	192	2
SI_	20	192	2	96	48	7
TAP	20	288	3
STR	21	0	4
SI_	21	0	4	96	48	0
STR	21	0	5
SI_	21	0	5	96	48	0
TAP	21	192	1
BRK	21	288	0
BRK	21	288	2
HLD	22	0	2	96
HLD	22	96	1	96
STR	22	192	0
SI_	22	192	0	96	48	3
TAP	22	288	7
HLD	23	0	4	96
HLD	23	96	5	96
STR	23	192	6
SI_	23	192	6	96	48	1
TAP	23	288	7
STR	24	0	2
SI_	24	0	2	96	48	7
TAP	24	96	3
STR	24	192	5
SI_	24	192	5	96	48	0
TAP	24	288	4
STR	25	0	1
SLR	25	0	1	96	96	6
SLR	25	0	1	96	96	7
BRK	25	288	0
BRK	25	288	5
HLD	26	0	6	72
TAP	26	72	7
TAP	26	144	5
HLD	26	192	1	72
TAP	26	264	0
TAP	26	336	2
HLD	27	0	7	72
TAP	27	72	0
TAP	27	144	6
STR	27	192	0
SI_	27	192	0	96	48	4
TAP	27	288	5
HLD	28	0	5	72
TAP	28	72	4
TAP	28	144	6
HLD	28	192	2	72
TAP	28	264	3
TAP	28	336	1
TAP	29	0	4
TAP	29	0	5
TAP	29	96	2
TAP	29	96	3
TAP	29	192	4
TAP	29	192	6
TAP	29	288	1
TAP	29	288	3
HLD	30	0	1	72
TAP	30	72	0
TAP	30	144	2
HLD	30	192	6	72
TAP	30	264	7
TAP	30	336	5
HLD	31	0	0	72
TAP	31	72	7
TAP	31	144	1
STR	31	192	7
SI_	31	192	7	96	48	3
TAP	31	288	2
HLD	32	0	2	72
TAP	32	72	3
TAP	32	144	1
HLD	32	192	5	72
TAP	32	264	4
TAP	32	336	6
TAP	33	0	3
TAP	33	48	4
STR	33	96	3
SI_	33	96	3	96	48	0
STR	33	96	4
SI_	33	96	4	96	48	7
BRK	33	288	1
BRK	33	288	6
HLD	34	0	5	72
HLD	34	72	4	72
HLD	34	144	3	72
TAP	34	216	2
TAP	34	288	0
TAP	34	288	1
HLD	35	0	1	72
HLD	35	72	2	72
STR	35	144	3
SCL	35	144	3	96	72	7
BRK	35	288	6
HLD	36	0	5	72
HLD	36	72	3	72
STR	36	144	1
SI_	36	144	1	96	72	5
TAP	36	240	0
TAP	36	288	0
STR	37	0	1
SLL	37	0	1	96	96	5
SLR	37	0	1	96	96	5
BRK	37	288	1
BRK	37	288	7
HLD	38	0	2	72
HLD	38	72	3	72
HLD	38	144	4	72
TAP	38	216	5
TAP	38	288	6
TAP	38	288	7
HLD	39	0	6	72
TAP	39	72	5
STR	39	144	4
SCL	39	144	4	96	48	1
TAP	39	144	7
TAP	39	240	0
TAP	39	288	0
TAP	40	0	1
TAP	40	0	5
TAP	40	48	2
TAP	40	96	3
TAP	40	96	7
TAP	40	192	2
TAP	40	192	6
TAP	40	240	5
TAP	40	288	0
TAP	40	288	4
STR	41	0	1
SI_	41	0	1	96	48	4
STR	41	0	5
SI_	41	0	5	96	48	0
BRK	41	192	6
BRK	41	192	7
HLD	42	0	2	72
HLD	42	72	3	72
HLD	42	144	4	72
TAP	42	216	5
TAP	42	288	6
TAP	42	288	7
HLD	43	0	6	72
HLD	43	72	5	72
STR	43	144	4
SCR	43	144	4	96	72	0
BRK	43	288	1
HLD	44	0	2	72
HLD	44	72	4	72
STR	44	144	6
SI_	44	144	6	96	72	2
TAP	44	240	7
TAP	44	288	7
STR	45	0	6
SCL	45	0	6	96	96	1
SUL	45	0	6	96	96	0
BRK	45	288	0
BRK	45	288	6
HLD	46	0	5	72
HLD	46	72	4	72
HLD	46	144	3	72
TAP	46	216	2
TAP	46	288	0
TAP	46	288	1
HLD	47	0	1	72
TAP	47	72	2
TAP	47	144	0
STR	47	144	3
SCR	47	144	3	96	48	6
TAP	47	240	7
TAP	47	288	7
TAP	48	0	2
TAP	48	0	6
TAP	48	48	5
TAP	48	96	0
TAP	48	96	4
TAP	48	192	1
TAP	48	192	5
TAP	48	240	2
TAP	48	288	3
TAP	48	288	7
STR	49	0	2
SI_	49	0	2	96	48	7
STR	49	0	6
SI_	49	0	6	96	48	3
BRK	49	192	0
BRK	49	192	1
STR	49	288	0
SCR	49	288	0	96	192	7
SUR	49	288	0	96	204	7
STR	51	0	6
SI_	51	0	6	96	48	3
STR	51	96	7
SI_	51	96	7	96	48	2
STR	51	192	6
SI_	51	192	6	96	48	4
TAP	51	288	7
STR	52	0	1
SI_	52	0	1	96	48	4
STR	52	96	0
SI_	52	96	0	96	48	5
STR	52	192	1
SI_	52	192	1	96	48	3
TAP	52	288	0
STR	53	0	7
SI_	53	0	7	96	48	4
STR	53	96	0
SI_	53	96	0	96	48	3
STR	53	192	7
SI_	53	192	7	96	48	5
TAP	53	288	0
STR	54	0	1
SCR	54	0	1	96	96	5
SUR	54	0	1	96	96	6
BRK	54	288	0
BRK	54	288	6
STR	55	0	1
SI_	55	0	1	96	48	4
STR	55	96	0
SI_	55	96	0	96	48	5
STR	55	192	1
SI_	55	192	1	96	48	3
TAP	55	288	0
STR	56	0	6
SI_	56	0	6	96	48	3
STR	56	96	7
SI_	56	96	7	96	48	2
STR	56	192	6
SI_	56	192	6	96	48	4
TAP	56	288	7
STR	57	0	0
SI_	57	0	0	96	48	3
STR	57	96	7
SI_	57	96	7	96	48	4
STR	57	192	0
SI_	57	192	0	96	48	2
TAP	57	288	7
STR	58	0	6
SCL	58	0	6	96	96	3
STR	58	0	7
SCR	58	0	7	96	96	2
BRK	58	288	1
BRK	58	288	4
HLD	59	0	1	72
HLD	59	72	2	72
STR	59	144	3
SCR	59	144	3	96	48	6
TAP	59	240	7
TAP	59	288	7
HLD	60	0	6	72
HLD	60	72	5	72
STR	60	144	4
SCL	60	144	4	96	48	1
TAP	60	240	0
TAP	60	288	0
STR	61	0	1
SI_	61	0	1	96	48	4
TAP	61	96	0
STR	61	192	6
SI_	61	192	6	96	48	3
TAP	61	288	7
STR	62	0	0
SUR	62	0	0	96	96	4
STR	62	0	1
SUL	62	0	1	96	96	5
BRK	62	288	2
BRK	62	288	7
HLD	63	0	0	96
TAP	63	0	1
TAP	63	48	2
TAP	63	96	3
TAP	63	192	6
HLD	63	192	7	96
TAP	63	240	5
TAP	63	288	4
STR	64	0	0
SF_	64	0	0	96	96	4
BRK	64	288	0
BRK	64	288	6
TAP	65	0	1
TAP	65	0	5
TAP	65	48	0
TAP	65	48	4
STR	65	96	3
SUR	65	96	3	96	96	0
STR	65	96	7
SUR	65	96	7	96	96	4
STR	66	0	1
SLL	66	0	1	96	120	2
STR	66	0	4
SLR	66	0	4	96	120	3
BRK	66	288	0
BRK	66	288	5
STR	67	0	2
SI_	67	0	2	96	48	7
STR	67	96	3
SI_	67	96	3	96	48	6
STR	67	192	2
SI_	67	192	2	96	48	0
TAP	67	288	3
STR	68	0	5
SI_	68	0	5	96	48	0
STR	68	96	4
SI_	68	96	4	96	48	1
STR	68	192	5
SI_	68	192	5	96	48	7
TAP	68	288	4
STR	69	0	3
SI_	69	0	3	96	48	0
STR	69	96	4
SI_	69	96	4	96	48	7
STR	69	192	3
SI_	69	192	3	96	48	1
TAP	69	288	4
STR	70	0	5
SCL	70	0	5	96	96	1
SUL	70	0	5	96	96	1
BRK	70	288	0
BRK	70	288	6
STR	71	0	5
SI_	71	0	5	96	48	0
STR	71	96	4
SI_	71	96	4	96	48	1
STR	71	192	5
SI_	71	192	5	96	48	7
TAP	71	288	4
STR	72	0	2
SI_	72	0	2	96	48	7
STR	72	96	3
SI_	72	96	3	96	48	6
STR	72	192	2
SI_	72	192	2	96	48	0
TAP	72	288	3
STR	73	0	4
SI_	73	0	4	96	48	7
STR	73	96	3
SI_	73	96	3	96	48	0
STR	73	192	4
SI_	73	192	4	96	48	6
TAP	73	288	3
STR	74	0	2
SLL	74	0	2	96	96	3
STR	74	0	5
SLR	74	0	5	96	96	4
BRK	74	288	2
BRK	74	288	5
STR	75	0	1
SLR	75	0	1	96	96	0
STR	75	0	6
SLL	75	0	6	96	96	7
BRK	75	288	1
BRK	75	288	6

T_REC_TAP	145
T_REC_BRK	39
T_REC_XTP	0
T_REC_HLD	53
T_REC_XHO	0
T_REC_STR	109
T_REC_BST	0
T_REC_XST	0
T_REC_TTP	0
T_REC_THO	0
T_REC_SLD	117
T_REC_ALL	463
T_NUM_TAP	254
T_NUM_BRK	39
T_NUM_HLD	53
T_NUM_SLD	117
T_NUM_ALL	463
T_JUDGE_TAP	293
T_JUDGE_HLD	122
T_JUDGE_SLD	117
T_JUDGE_ALL	532
TTM_EACHPAIRS	59
TTM_SCR_TAP	127000
TTM_SCR_BRK	101400
TTM_SCR_HLD	53000
TTM_SCR_SLD	175500
TTM_SCR_ALL	456900
TTM_SCR_S	439450
TTM_SCR_SS	453000
TTM_RAT_ACV	10086

