VERSION	0.00.00	1.03.00
FES_MODE	0
BPM_DEF	153.000	153.000	153.000	153.000
MET_DEF	4	4
RESOLUTION	384
CLK_DEF	384
COMPATIBLE_CODE	MA2

BPM	0	0	153.000
MET	0	0	4	4

STR	1	0	1
SCR	1	0	1	96	384	6
BRK	2	288	7
STR	3	0	6
SCL	3	0	6	96	384	1
TAP	4	192	0
TAP	4	288	1
TAP	4	288	7
STR	5	0	0
SCR	5	0	0	96	480	7
BRK	7	0	0
BRK	7	0	7
BRK	7	192	1
BRK	7	192	6
BRK	8	0	0
BRK	8	0	7
BRK	8	96	1
BRK	8	96	6
BRK	8	192	2
BRK	8	192	5
STR	9	0	2
SUR	9	0	2	96	216	3
TAP	10	0	4
TAP	10	96	4
TAP	10	96	5
TAP	10	192	2
TAP	10	288	2
TAP	10	288	3
TAP	11	0	5
TAP	11	96	4
TAP	11	96	5
TAP	11	192	3
TAP	11	192	6
TAP	12	0	2
TAP	12	96	2
TAP	12	96	3
TAP	12	192	5
TAP	12	288	4
TAP	12	288	5
TAP	13	0	2
TAP	13	0	3
TAP	13	96	1
TAP	13	96	4
TAP	13	192	0
TAP	13	192	5
BRK	13	288	6
BRK	13	288	7
TAP	14	0	0
TAP	14	96	0
TAP	14	96	1
TAP	14	192	6
TAP	14	288	6
TAP	14	288	7
TAP	15	0	1
TAP	15	96	0
TAP	15	96	1
TAP	15	192	2
TAP	15	192	7
TAP	16	0	6
TAP	16	96	6
TAP	16	96	7
TAP	16	192	1
TAP	16	288	0
TAP	16	288	1
TAP	17	0	0
TAP	17	0	7
TAP	17	96	1
TAP	17	96	6
TAP	17	192	2
TAP	17	192	5
HLD	18	0	2	96
TAP	18	96	3
TAP	18	192	4
HLD	19	0	5	96
TAP	19	96	4
TAP	19	192	3
HLD	20	0	2	96
TAP	20	96	3
HLD	20	192	5	96
TAP	20	288	4
TAP	21	0	3
TAP	21	96	2
TAP	21	192	1
TAP	21	288	0
TAP	21	288	2
HLD	22	0	6	96
TAP	22	96	7
TAP	22	192	0
HLD	23	0	1	96
TAP	23	96	0
TAP	23	192	7
HLD	24	0	6	96
TAP	24	96	7
HLD	24	192	1	96
TAP	24	288	0
STR	25	0	0
SI_	25	0	0	96	96	3
STR	25	0	7
SI_	25	0	7	96	96	4
TAP	25	288	2
TAP	25	288	5
HLD	26	0	2	96
TAP	26	96	3
HLD	26	192	5	96
TAP	26	288	4
HLD	27	0	2	96
TAP	27	96	3
TAP	27	192	1
TAP	27	192	4
HLD	28	0	5	96
TAP	28	96	4
HLD	28	192	2	96
TAP	28	288	3
TAP	29	0	2
TAP	29	0	3
TAP	29	96	1
TAP	29	96	3
TAP	29	192	4
TAP	29	192	5
TAP	29	288	4
TAP	29	288	6
HLD	30	0	6	96
TAP	30	96	7
HLD	30	192	1	96
TAP	30	288	0
HLD	31	0	6	96
TAP	31	96	7
TAP	31	192	0
TAP	31	192	5
HLD	32	0	1	96
TAP	32	96	0
HLD	32	192	6	96
TAP	32	288	7
STR	33	0	0
SCR	33	0	0	96	144	3
STR	33	0	7
SCL	33	0	7	96	144	4
TAP	34	0	2
TAP	34	96	1
TAP	34	96	3
TAP	34	192	5
TAP	34	288	4
TAP	34	288	6
TAP	35	0	3
STR	35	0	7
SI_	35	0	7	96	96	3
BRK	35	288	1
TAP	36	0	0
TAP	36	0	1
TAP	36	96	0
TAP	36	96	1
STR	36	192	6
SCL	36	192	6	96	192	3
STR	36	192	7
SCR	36	192	7	96	192	2
TAP	37	288	1
TAP	37	288	4
TAP	38	0	5
TAP	38	96	4
TAP	38	96	6
TAP	38	192	2
TAP	38	288	1
TAP	38	288	3
STR	39	0	0
SI_	39	0	0	96	96	4
TAP	39	0	4
TAP	39	288	6
TAP	40	0	6
TAP	40	0	7
TAP	40	96	0
TAP	40	96	5
TAP	40	192	0
TAP	40	192	1
TAP	40	288	2
TAP	40	288	7
BST	41	0	3
SCL	41	0	3	96	96	0
BST	41	0	6
SCL	41	0	6	96	96	3
TAP	42	0	5
TAP	42	96	4
TAP	42	96	6
TAP	42	192	2
TAP	42	288	1
TAP	42	288	3
STR	43	0	0
SI_	43	0	0	96	96	4
TAP	43	0	4
BRK	43	288	6
TAP	44	0	6
TAP	44	0	7
TAP	44	96	6
TAP	44	96	7
STR	44	192	0
SCL	44	192	0	96	192	5
STR	44	192	1
SCR	44	192	1	96	192	4
TAP	45	288	3
TAP	45	288	6
TAP	46	0	2
TAP	46	96	1
TAP	46	96	3
TAP	46	192	5
TAP	46	288	4
TAP	46	288	6
TAP	47	0	3
STR	47	0	7
SI_	47	0	7	96	96	3
TAP	47	288	1
TAP	48	0	0
TAP	48	0	1
TAP	48	96	2
TAP	48	96	7
TAP	48	192	6
TAP	48	192	7
TAP	48	288	0
TAP	48	288	5
BST	49	0	1
SCR	49	0	1	96	96	4
BST	49	0	4
SCR	49	0	4	96	96	7
STR	50	0	5
SUL	50	0	5	96	216	4
TAP	51	0	3
TAP	51	96	2
TAP	51	96	3
TAP	51	192	5
TAP	51	288	4
TAP	51	288	5
TAP	52	0	2
TAP	52	96	2
TAP	52	96	3
TAP	52	192	1
TAP	52	192	4
TAP	53	0	5
TAP	53	96	4
TAP	53	96	5
TAP	53	192	2
TAP	53	288	2
TAP	53	288	3
TAP	54	0	4
TAP	54	0	5
TAP	54	96	3
TAP	54	96	6
TAP	54	192	2
TAP	54	192	7
BRK	54	288	0
BRK	54	288	1
TAP	55	0	7
TAP	55	96	6
TAP	55	96	7
TAP	55	192	1
TAP	55	288	0
TAP	55	288	1
TAP	56	0	6
TAP	56	96	6
TAP	56	96	7
TAP	56	192	0
TAP	56	192	5
TAP	57	0	1
TAP	57	96	0
TAP	57	96	1
TAP	57	192	6
TAP	57	288	6
TAP	57	288	7
TAP	58	0	0
TAP	58	0	7
TAP	58	96	1
TAP	58	96	6
TAP	58	192	2
TAP	58	192	5
TAP	59	0	5
TAP	59	96	4
TAP	59	96	6
TAP	59	192	2
TAP	59	288	1
STR	59	288	3
SCR	59	288	3	96	144	6
BRK	60	288	7
TAP	61	0	6
TAP	61	0	7
TAP	61	96	6
TAP	61	96	7
TAP	61	192	0
TAP	61	192	1
TAP	61	288	0
TAP	61	288	1
STR	62	0	0
SCR	62	0	0	96	144	3
STR	62	0	7
SCL	62	0	7	96	144	4
TAP	63	0	2
TAP	63	96	1
TAP	63	96	3
TAP	63	192	5
STR	63	288	4
SCL	63	288	4	96	144	1
TAP	63	288	6
TAP	64	192	0
TAP	65	0	0
TAP	65	0	1
TAP	65	96	0
TAP	65	96	1
TAP	65	192	6
TAP	65	192	7
TAP	65	288	6
TAP	65	288	7
BST	66	0	0
SI_	66	0	0	96	144	3
BST	66	0	7
SI_	66	0	7	96	144	4
TAP	67	0	2
TAP	67	96	1
TAP	67	96	3
TAP	67	192	5
TAP	67	288	4
TAP	67	288	6
TAP	68	0	2
TAP	68	96	1
TAP	68	96	3
TAP	68	192	0
TAP	68	192	4
TAP	69	0	5
TAP	69	96	4
TAP	69	96	6
TAP	69	192	2
TAP	69	288	1
TAP	69	288	3
TAP	70	0	5
TAP	70	96	4
TAP	70	96	6
TAP	70	192	3
TAP	70	192	7
BRK	70	288	0
BRK	70	288	2
TAP	71	0	1
TAP	71	96	0
TAP	71	96	1
TAP	71	192	6
TAP	71	288	6
TAP	71	288	7
TAP	72	0	1
TAP	72	96	0
TAP	72	96	1
TAP	72	192	2
TAP	72	192	7
TAP	73	0	6
TAP	73	96	6
TAP	73	96	7
TAP	73	192	1
TAP	73	288	0
TAP	73	288	1
TAP	74	0	6
TAP	74	0	7
TAP	74	96	0
TAP	74	96	5
TAP	74	192	1
TAP	74	192	4
TAP	75	0	0
TAP	75	0	1
TAP	75	96	2
TAP	75	96	7
TAP	75	192	3
STR	75	192	6
SI_	75	192	6	96	96	2

T_REC_TAP	271
T_REC_BRK	20
T_REC_XTP	0
T_REC_HLD	18
T_REC_XHO	0
T_REC_STR	22
T_REC_BST	6
T_REC_XST	0
T_REC_TTP	0
T_REC_THO	0
T_REC_SLD	28
T_REC_ALL	365
T_NUM_TAP	293
T_NUM_BRK	26
T_NUM_HLD	18
T_NUM_SLD	28
T_NUM_ALL	365
T_JUDGE_TAP	319
T_JUDGE_HLD	36
T_JUDGE_SLD	28
T_JUDGE_ALL	383
TTM_EACHPAIRS	119
TTM_SCR_TAP	146500
TTM_SCR_BRK	67600
TTM_SCR_HLD	18000
TTM_SCR_SLD	42000
TTM_SCR_ALL	274100
TTM_SCR_S	263400
TTM_SCR_SS	271500
TTM_RAT_ACV	10095

