VERSION	0.00.00	1.03.00
FES_MODE	0
BPM_DEF	153.000	153.000	153.000	153.000
MET_DEF	4	4
RESOLUTION	384
CLK_DEF	384
COMPATIBLE_CODE	MA2

BPM	0	0	153.000
MET	0	0	4	4

TAP	1	0	3
TAP	1	192	3
TAP	2	0	3
TAP	2	192	3
TAP	3	0	4
TAP	3	192	4
TAP	4	0	5
TAP	4	96	5
TAP	4	192	5
TAP	4	288	5
TAP	5	0	4
TAP	5	192	4
TAP	6	0	4
TAP	6	192	4
TAP	7	0	2
TAP	7	0	3
TAP	7	192	4
TAP	7	192	5
TAP	8	0	3
TAP	8	96	4
BRK	8	192	3
HLD	9	0	2	192
HLD	9	0	5	192
TAP	10	0	1
TAP	10	96	1
TAP	10	192	1
TAP	11	0	0
TAP	11	96	0
TAP	11	192	0
TAP	12	0	7
TAP	12	96	7
TAP	12	192	7
TAP	13	0	6
TAP	13	96	7
TAP	13	192	6
TAP	14	0	6
TAP	14	96	6
TAP	14	192	6
TAP	15	0	7
TAP	15	96	7
TAP	15	192	7
TAP	16	0	0
TAP	16	96	0
TAP	16	192	0
TAP	17	0	1
TAP	17	96	0
TAP	17	192	1
TAP	18	0	2
TAP	18	96	2
TAP	18	192	2
TAP	18	192	3
TAP	19	0	5
TAP	19	96	5
TAP	19	192	4
TAP	19	192	5
TAP	20	0	2
TAP	20	96	2
TAP	20	192	2
TAP	20	192	3
TAP	21	0	4
TAP	21	96	4
TAP	21	192	5
TAP	21	288	5
TAP	22	0	6
TAP	22	96	6
TAP	22	192	6
TAP	22	192	7
TAP	23	0	1
TAP	23	96	1
TAP	23	192	0
TAP	23	192	1
TAP	24	0	6
TAP	24	96	6
TAP	24	192	6
TAP	24	192	7
TAP	25	0	0
TAP	25	96	0
TAP	25	192	1
TAP	25	288	1
STR	26	0	1
SI_	26	0	1	96	288	6
TAP	27	192	5
STR	28	0	5
SI_	28	0	5	96	288	2
TAP	29	192	0
STR	30	0	0
SI_	30	0	0	96	288	3
TAP	31	192	4
STR	32	0	4
SI_	32	0	4	96	288	7
TAP	34	0	1
TAP	34	96	1
TAP	34	192	1
TAP	35	0	1
TAP	35	96	0
TAP	35	192	1
TAP	36	0	7
TAP	36	96	7
TAP	36	192	0
TAP	36	288	0
HLD	37	0	7	192
TAP	38	0	6
TAP	38	96	6
TAP	38	192	6
TAP	39	0	6
TAP	39	96	7
TAP	39	192	6
TAP	40	0	0
TAP	40	96	0
TAP	40	192	7
TAP	40	288	7
TAP	41	0	0
TAP	41	0	7
TAP	41	96	0
TAP	41	96	7
BRK	41	192	1
BRK	41	192	6
TAP	42	0	5
TAP	42	96	5
TAP	42	192	5
TAP	43	0	5
TAP	43	96	4
TAP	43	192	5
TAP	44	0	3
TAP	44	96	3
TAP	44	192	4
TAP	44	288	4
HLD	45	0	3	192
TAP	46	0	2
TAP	46	96	2
TAP	46	192	2
TAP	47	0	2
TAP	47	96	3
TAP	47	192	2
TAP	48	0	4
TAP	48	96	4
TAP	48	192	3
TAP	48	288	3
TAP	49	0	3
TAP	49	0	4
TAP	49	96	3
TAP	49	96	4
BRK	49	192	2
BRK	49	192	5
TAP	51	0	0
TAP	51	96	0
TAP	51	192	0
TAP	52	0	1
TAP	52	96	1
TAP	52	192	1
TAP	53	0	2
TAP	53	96	2
TAP	53	192	3
TAP	53	288	3
TAP	54	0	4
TAP	54	96	3
TAP	54	192	4
TAP	55	0	4
TAP	55	96	4
TAP	55	192	4
TAP	56	0	5
TAP	56	96	5
TAP	56	192	5
TAP	57	0	6
TAP	57	96	6
TAP	57	192	7
TAP	57	288	7
TAP	58	0	0
TAP	58	96	7
TAP	58	192	0
TAP	59	0	7
TAP	59	96	7
TAP	59	192	0
TAP	59	288	0
HLD	60	0	7	192
TAP	61	0	6
TAP	61	96	6
TAP	61	192	5
TAP	61	288	5
TAP	62	0	4
TAP	62	0	5
TAP	62	96	4
TAP	62	96	5
TAP	62	192	4
TAP	62	192	5
TAP	63	0	3
TAP	63	96	3
TAP	63	192	4
TAP	63	288	4
HLD	64	0	3	192
TAP	65	0	2
TAP	65	96	2
TAP	65	192	1
TAP	65	288	1
TAP	66	0	0
TAP	66	0	1
TAP	66	96	0
TAP	66	96	1
BRK	66	192	0
BRK	66	192	1
TAP	67	0	2
TAP	67	96	2
TAP	67	192	2
TAP	68	0	3
TAP	68	96	3
TAP	68	192	3
TAP	69	0	4
TAP	69	96	4
TAP	69	192	4
TAP	70	0	4
TAP	70	0	5
TAP	70	96	4
TAP	70	96	5
TAP	70	192	3
TAP	70	192	6
TAP	71	0	6
TAP	71	96	6
TAP	71	192	6
TAP	72	0	7
TAP	72	96	7
TAP	72	192	7
TAP	73	0	0
TAP	73	96	0
TAP	73	192	0
TAP	74	0	0
TAP	74	0	1
TAP	74	96	0
TAP	74	96	1
TAP	74	192	2
TAP	74	192	7
TAP	75	0	6
TAP	75	0	7
TAP	75	96	6
TAP	75	96	7
HLD	75	192	0	144
HLD	75	192	5	144

T_REC_TAP	213
T_REC_BRK	7
T_REC_XTP	0
T_REC_HLD	8
T_REC_XHO	0
T_REC_STR	4
T_REC_BST	0
T_REC_XST	0
T_REC_TTP	0
T_REC_THO	0
T_REC_SLD	4
T_REC_ALL	236
T_NUM_TAP	217
T_NUM_BRK	7
T_NUM_HLD	8
T_NUM_SLD	4
T_NUM_ALL	236
T_JUDGE_TAP	224
T_JUDGE_HLD	30
T_JUDGE_SLD	4
T_JUDGE_ALL	258
TTM_EACHPAIRS	30
TTM_SCR_TAP	108500
TTM_SCR_BRK	18200
TTM_SCR_HLD	8000
TTM_SCR_SLD	6000
TTM_SCR_ALL	140700
TTM_SCR_S	135800
TTM_SCR_SS	140000
TTM_RAT_ACV	10050

