VERSION	0.00.00	1.03.00
FES_MODE	0
BPM_DEF	190.000	190.000	190.000	190.000
MET_DEF	4	4
RESOLUTION	384
CLK_DEF	384
COMPATIBLE_CODE	MA2

BPM	0	0	190.000
MET	0	0	4	4

TAP	2	0	1
TAP	2	0	7
TAP	2	48	0
TAP	2	48	6
TAP	2	96	1
TAP	2	96	7
TAP	2	144	0
TAP	2	144	6
TAP	2	240	1
TAP	2	240	7
TAP	2	336	0
TAP	2	336	6
TAP	3	0	1
TAP	3	0	7
TAP	3	48	0
TAP	3	48	6
TAP	3	144	1
TAP	3	144	7
STR	3	192	3
SI_	3	192	3	96	48	1
STR	3	192	4
SI_	3	192	4	96	48	6
STR	4	0	1
SI_	4	0	1	96	48	7
STR	4	96	5
SI_	4	96	5	96	48	3
STR	4	192	1
SI_	4	192	1	96	48	6
STR	4	288	5
SI_	4	288	5	96	48	2
TAP	5	0	1
STR	5	96	3
SXR	5	96	3	96	144	0
TAP	5	192	4
STR	6	0	6
SI_	6	0	6	96	48	1
STR	6	96	2
SI_	6	96	2	96	48	5
STR	6	192	6
SI_	6	192	6	96	48	1
STR	6	288	2
SI_	6	288	2	96	48	5
TAP	7	0	6
STR	7	96	4
SXL	7	96	4	96	144	7
TAP	7	192	3
TAP	8	0	2
TAP	8	32	3
TAP	8	64	1
TAP	8	96	6
TAP	8	128	7
TAP	8	160	5
TAP	8	192	2
TAP	8	224	3
TAP	8	256	1
TAP	8	288	6
TAP	8	320	7
TAP	8	352	5
STR	9	0	0
SI_	9	0	0	96	48	5
STR	9	96	7
SI_	9	96	7	96	48	2
STR	9	192	0
SI_	9	192	0	96	48	4
TAP	9	288	7
TAP	10	0	6
HLD	10	48	6	48
TAP	10	96	4
HLD	10	144	4	48
TAP	10	192	2
HLD	10	240	2	48
TAP	10	288	0
HLD	10	336	0	48
TAP	11	0	7
TAP	11	24	0
TAP	11	48	7
TAP	11	72	0
TAP	11	96	7
TAP	11	192	1
TAP	11	216	6
TAP	11	240	1
TAP	11	264	6
TAP	11	288	1
BRK	11	336	0
BRK	11	336	7
TAP	12	48	0
STR	12	96	0
SCR	12	96	0	96	96	4
STR	12	192	4
SCR	12	192	4	96	96	0
STR	12	288	0
SCR	12	288	0	96	96	4
TAP	13	0	4
TAP	13	96	0
TAP	13	192	2
TAP	13	192	6
STR	13	240	3
SI_	13	240	3	96	48	0
STR	13	240	7
SI_	13	240	7	96	48	4
TAP	14	48	7
STR	14	96	7
SCL	14	96	7	96	96	3
STR	14	192	3
SCL	14	192	3	96	96	7
STR	14	288	7
SCL	14	288	7	96	96	3
TAP	15	0	3
TAP	15	96	7
TAP	15	192	1
TAP	15	192	5
STR	15	240	0
SI_	15	240	0	96	48	3
STR	15	240	4
SI_	15	240	4	96	48	7
TAP	16	48	1
STR	16	96	1
SCL	16	96	1	96	96	6
STR	16	192	6
SUL	16	192	6	96	96	2
STR	16	288	2
SUL	16	288	2	96	96	6
STR	17	0	6
SCL	17	0	6	96	96	3
TAP	17	96	3
TAP	17	192	0
STR	17	288	4
SCR	17	288	4	96	48	7
HLD	17	288	6	96
HLD	18	96	1	96
STR	18	96	3
SCL	18	96	3	96	48	0
STR	18	288	4
SUL	18	288	4	96	192	1
SXL	18	288	4	96	192	0
TAP	18	288	6
TAP	19	240	0
TAP	19	240	7
BST	19	288	1
SI_	19	288	1	96	48	4
BST	19	288	6
SI_	19	288	6	96	48	3
TAP	20	96	2
TAP	20	96	5
STR	20	192	0
SV_	20	192	0	96	48	5
TAP	20	192	7
TAP	20	288	6
TAP	21	0	0
STR	21	0	7
SV_	21	0	7	96	48	2
TAP	21	96	1
TAP	21	192	0
TAP	21	192	7
STR	21	240	1
SI_	21	240	1	96	48	6
STR	21	240	5
SI_	21	240	5	96	48	2
TAP	22	48	6
TAP	22	48	7
TAP	22	96	0
TAP	22	96	5
TAP	22	192	3
STR	22	192	4
SV_	22	192	4	96	48	1
TAP	22	288	2
STR	23	0	3
SV_	23	0	3	96	48	6
TAP	23	0	4
TAP	23	96	5
TAP	23	192	0
TAP	23	192	7
STR	23	240	2
SI_	23	240	2	96	48	5
STR	23	240	6
SI_	23	240	6	96	48	1
TAP	24	48	0
TAP	24	48	1
TAP	24	96	2
TAP	24	96	7
TAP	24	192	0
TAP	24	192	5
TAP	24	288	1
TAP	24	288	6
STR	25	0	3
SUR	25	0	3	96	96	4
TAP	25	0	4
STR	25	96	4
SCR	25	96	4	96	144	3
TAP	26	0	2
TAP	26	0	3
TAP	26	48	4
TAP	26	48	5
TAP	26	192	1
TAP	26	192	3
STR	26	240	4
SI_	26	240	4	96	48	0
TAP	26	240	6
TAP	26	336	5
TAP	27	48	0
TAP	27	48	7
STR	27	96	1
SUR	27	96	1	96	96	6
TAP	27	96	6
TAP	27	144	2
TAP	27	144	5
HLD	28	0	4	48
HLD	28	0	5	48
HLD	28	72	3	48
HLD	28	72	6	48
TAP	28	144	3
TAP	28	144	6
TAP	28	192	3
TAP	28	192	6
HLD	28	288	1	48
HLD	28	288	6	48
HLD	28	360	0	48
HLD	28	360	7	48
TAP	29	48	0
TAP	29	48	7
TAP	29	96	1
TAP	29	96	6
HLD	29	192	3	48
HLD	29	192	6	48
HLD	29	264	1	48
HLD	29	264	4	48
TAP	29	336	3
TAP	29	336	6
TAP	30	0	3
TAP	30	0	6
STR	30	96	3
SI_	30	96	3	96	48	7
STR	30	192	6
SI_	30	192	6	96	48	2
STR	30	288	1
SI_	30	288	1	96	48	5
HLD	31	0	7	96
TAP	31	96	0
HLD	31	192	3	48
HLD	31	192	6	48
HLD	31	264	1	48
HLD	31	264	4	48
TAP	31	336	3
TAP	31	336	6
BRK	32	0	0
BRK	32	0	7
HLD	32	96	3	48
HLD	32	96	6	48
HLD	32	168	1	48
HLD	32	168	4	48
TAP	32	240	3
TAP	32	240	6
BRK	32	288	0
BRK	32	288	7
HLD	33	0	3	48
HLD	33	0	6	48
HLD	33	72	1	48
HLD	33	72	4	48
TAP	33	144	3
TAP	33	144	6
STR	33	192	1
SI_	33	192	1	96	48	4
STR	33	192	4
SI_	33	192	4	96	48	0
BRK	34	0	3
TAP	34	0	6
TAP	34	96	1
BRK	34	96	4
BRK	34	192	3
STR	34	192	6
SCR	34	192	6	96	48	1
HLD	35	0	3	144
TAP	35	0	4
HLD	35	96	4	144
HLD	35	192	2	144
HLD	35	288	5	144
HLD	36	0	1	144
HLD	36	96	6	144
HLD	36	192	0	96
BRK	36	288	7
TAP	37	0	2
TAP	37	0	4
TAP	37	48	3
TAP	37	48	5
TAP	37	96	2
TAP	37	96	4
TAP	37	144	3
TAP	37	144	5
TAP	37	240	1
TAP	37	240	3
TAP	37	336	4
TAP	37	336	6
TAP	38	0	5
TAP	38	48	2
TAP	38	144	1
TAP	38	144	7
TAP	38	192	0
TAP	38	192	6
BRK	38	288	1
BRK	38	288	6
TAP	39	0	4
TAP	39	0	6
TAP	39	48	7
STR	39	96	0
SI_	39	96	0	96	48	4
TAP	39	96	2
STR	39	192	0
SI_	39	192	0	96	48	2
SI_	39	192	0	96	48	6
TAP	40	0	1
TAP	40	0	3
TAP	40	48	0
TAP	40	96	5
STR	40	96	7
SI_	40	96	7	96	48	3
STR	40	192	7
SI_	40	192	7	96	48	1
SI_	40	192	7	96	48	5
HLD	41	0	1	48
HLD	41	0	3	48
HLD	41	96	4	48
HLD	41	96	6	48
HLD	41	192	1	48
HLD	41	192	3	48
TAP	41	288	4
TAP	41	288	6
TAP	41	336	4
STR	41	336	6
SCR	41	336	6	96	48	1
TAP	42	144	3
TAP	42	144	4
BRK	42	240	7
BRK	42	288	7
TAP	43	0	4
STR	43	0	5
SI_	43	0	5	96	48	0
TAP	43	96	3
TAP	43	192	4
STR	43	192	5
SI_	43	192	5	96	48	0
TAP	43	288	2
STR	44	0	2
SI_	44	0	2	96	48	7
TAP	44	0	3
TAP	44	96	5
TAP	44	192	2
TAP	44	192	3
BST	44	288	5
SI_	44	288	5	96	48	2
TAP	45	96	3
BST	45	96	7
SV_	45	96	7	96	48	2
SV_	45	96	7	96	48	4
TAP	45	288	0
TAP	45	288	7
BRK	46	0	0
TAP	46	12	1
TAP	46	24	2
TAP	46	36	3
TAP	46	48	4
TAP	46	60	5
TAP	46	72	6
TAP	46	84	7
BRK	46	96	0
TAP	46	108	1
TAP	46	120	2
TAP	46	132	3
TAP	46	144	4
TAP	46	156	5
TAP	46	168	6
TAP	46	180	7
BRK	46	192	0
TAP	46	204	1
TAP	46	216	2
TAP	46	228	3
TAP	46	240	4
TAP	46	252	5
TAP	46	264	6
TAP	46	276	7
BRK	46	288	0
TAP	47	0	1
TAP	47	0	3
TAP	47	48	0
TAP	47	96	5
STR	47	96	7
SI_	47	96	7	96	48	3
STR	47	192	7
SI_	47	192	7	96	48	1
SI_	47	192	7	96	48	5
TAP	48	0	4
TAP	48	0	6
TAP	48	48	7
STR	48	96	0
SI_	48	96	0	96	48	4
TAP	48	96	2
STR	48	192	0
SI_	48	192	0	96	48	2
SI_	48	192	0	96	48	6
HLD	49	0	4	48
HLD	49	0	6	48
HLD	49	96	1	48
HLD	49	96	3	48
HLD	49	192	4	48
HLD	49	192	6	48
TAP	49	288	1
TAP	49	288	3
STR	49	336	1
SCL	49	336	1	96	48	6
TAP	49	336	3
TAP	50	144	3
TAP	50	144	4
BRK	50	240	0
BRK	50	288	0
STR	51	0	3
SCL	51	0	3	96	48	0
SCR	51	0	3	96	48	6
STR	51	192	4
SCL	51	192	4	96	48	1
SCR	51	192	4	96	48	7
STR	52	0	0
SCL	52	0	0	96	48	5
SCR	52	0	0	96	48	3
STR	52	192	7
SCL	52	192	7	96	48	4
SCR	52	192	7	96	48	2
HLD	53	0	0	32
HLD	53	0	5	32
HLD	53	64	2	32
HLD	53	64	7	32
HLD	53	128	0	32
HLD	53	128	5	32
HLD	53	192	2	32
HLD	53	192	7	32
HLD	53	256	0	32
HLD	53	256	5	32
HLD	53	320	2	32
HLD	53	320	7	32
HLD	54	0	0	32
HLD	54	0	1	32
HLD	54	64	2	32
HLD	54	64	7	32
HLD	54	128	3	32
HLD	54	128	6	32
STR	54	192	4
SCL	54	192	4	96	48	1
STR	54	192	5
SCR	54	192	5	96	48	0
STR	55	0	3
SI_	55	0	3	96	48	1
HLD	55	48	3	48
STR	55	144	4
SI_	55	144	4	96	48	0
HLD	55	192	4	48
STR	55	288	3
SI_	55	288	3	96	48	7
HLD	55	336	3	48
STR	56	48	4
SI_	56	48	4	96	48	6
HLD	56	96	4	48
STR	56	192	3
SI_	56	192	3	96	48	0
HLD	56	240	3	48
STR	56	336	4
SI_	56	336	4	96	48	7
HLD	57	0	4	48
STR	57	96	3
SI_	57	96	3	96	48	1
HLD	57	144	3	48
STR	57	240	4
SI_	57	240	4	96	48	6
HLD	57	288	4	48
STR	58	0	3
SI_	58	0	3	96	48	7
HLD	58	48	3	48
TAP	58	144	4
TAP	58	192	4
TAP	58	288	1
TAP	58	288	6
HLD	59	0	0	96
TAP	59	0	7
STR	59	96	2
SI_	59	96	2	96	48	5
TAP	59	192	2
TAP	59	192	7
BRK	59	288	1
BRK	59	288	6
TAP	60	0	0
HLD	60	0	7	96
STR	60	96	5
SI_	60	96	5	96	48	2
TAP	60	192	0
TAP	60	192	5
BRK	60	288	1
BRK	60	288	6
STR	61	0	4
SI_	61	0	4	96	48	7
TAP	61	0	5
TAP	61	48	3
TAP	61	96	2
TAP	61	192	2
STR	61	192	3
SI_	61	192	3	96	48	0
TAP	61	240	4
TAP	61	288	5
TAP	62	0	0
TAP	62	0	7
TAP	62	48	1
TAP	62	48	6
TAP	62	96	2
TAP	62	96	5
TAP	62	144	3
TAP	62	144	4
TAP	62	192	2
STR	62	192	5
SI_	62	192	5	96	48	1
BRK	62	240	1
BRK	62	288	0
STR	63	0	2
SI_	63	0	2	96	48	7
STR	63	96	3
SI_	63	96	3	96	48	6
STR	63	192	2
SI_	63	192	2	96	48	7
STR	63	288	3
SI_	63	288	3	96	48	6
STR	64	0	1
SI_	64	0	1	96	48	4
STR	64	96	5
SSR	64	96	5	96	96	1
HLD	64	192	0	96
STR	65	0	5
SI_	65	0	5	96	48	0
STR	65	96	4
SI_	65	96	4	96	48	1
STR	65	192	5
SI_	65	192	5	96	48	0
TAP	65	288	3
TAP	66	0	1
TAP	66	0	4
TAP	66	48	2
TAP	66	96	3
TAP	66	96	6
TAP	66	144	5
STR	66	192	1
SCR	66	192	1	96	48	4
STR	66	192	4
SI_	66	192	4	96	48	7
TAP	67	0	2
TAP	67	32	3
TAP	67	64	1
TAP	67	96	6
TAP	67	128	4
TAP	67	160	5
TAP	67	192	2
TAP	67	224	3
TAP	67	256	1
TAP	67	288	6
TAP	67	320	4
TAP	67	352	5
TAP	68	0	1
TAP	68	32	0
TAP	68	64	2
TAP	68	96	5
TAP	68	128	7
TAP	68	160	6
TAP	68	192	1
TAP	68	224	0
TAP	68	256	2
TAP	68	288	5
TAP	68	320	7
TAP	68	352	6
HLD	69	0	1	64
TAP	69	64	3
HLD	69	96	3	64
TAP	69	160	5
HLD	69	192	5	64
TAP	69	256	7
HLD	69	288	7	64
TAP	69	352	0
STR	70	0	0
SI_	70	0	0	96	48	4
STR	70	192	0
SF_	70	192	0	96	48	4
STR	71	0	0
SI_	71	0	0	96	48	3
STR	71	0	6
SUR	71	0	6	96	48	3
STR	71	192	4
SUR	71	192	4	96	48	0
STR	71	192	5
SI_	71	192	5	96	48	0
STR	72	0	1
SLL	72	0	1	96	144	3
STR	72	0	5
SLR	72	0	5	96	144	3
TAP	72	288	1
TAP	72	288	6
STR	73	0	1
SCR	73	0	1	96	48	3
STR	73	0	5
SCL	73	0	5	96	48	3
STR	73	192	2
SCR	73	192	2	96	48	4
STR	73	192	6
SCL	73	192	6	96	48	4
TAP	74	0	3
TAP	74	0	4
STR	74	96	0
SCR	74	96	0	96	96	3
STR	74	96	7
SCL	74	96	7	96	96	4
STR	75	0	4
SI_	75	0	4	96	48	7
TAP	75	0	5
TAP	75	96	3
TAP	75	192	2
STR	75	192	3
SI_	75	192	3	96	48	0
TAP	75	288	4
STR	76	0	4
SI_	76	0	4	96	48	0
TAP	76	0	5
TAP	76	96	3
TAP	76	192	2
STR	76	192	3
SI_	76	192	3	96	48	7
TAP	76	288	4
STR	77	0	0
SCR	77	0	0	96	96	4
STR	77	96	4
SCR	77	96	4	96	96	0
STR	77	192	0
SI_	77	192	0	96	96	4
STR	77	288	4
SSL	77	288	4	96	288	0
HLD	79	0	5	384
HLD	80	0	6	384
HLD	81	0	5	384
HLD	82	0	2	384
TAP	83	0	1
TAP	83	96	0
TAP	83	192	7
TAP	83	288	6
TAP	84	0	5
TAP	84	96	4
TAP	84	192	3
TAP	84	288	2
STR	84	288	5
SI_	84	288	5	96	48	2
STR	85	96	0
SV_	85	96	0	96	48	3
SV_	85	96	0	96	48	5
STR	85	288	0
SCR	85	288	0	96	48	3
STR	85	288	4
SCR	85	288	4	96	48	7
STR	86	0	0
SUL	86	0	0	96	48	4
STR	86	0	4
SUL	86	0	4	96	48	0
STR	86	96	0
SCR	86	96	0	96	48	3
STR	86	96	4
SCR	86	96	4	96	48	7
BRK	86	192	0
BRK	86	192	4
BRK	86	288	0
BRK	86	288	4
TAP	87	0	1
TAP	87	0	4
TAP	87	48	2
STR	87	96	3
SI_	87	96	3	96	48	7
TAP	87	96	6
STR	87	192	0
SCL	87	192	0	96	48	5
SCR	87	192	0	96	48	3
TAP	87	192	3
TAP	88	0	3
TAP	88	0	6
TAP	88	48	5
TAP	88	96	1
STR	88	96	4
SI_	88	96	4	96	48	0
TAP	88	192	4
STR	88	192	7
SCL	88	192	7	96	48	4
SCR	88	192	7	96	48	2
HLD	89	0	1	48
HLD	89	0	3	48
HLD	89	96	4	48
HLD	89	96	6	48
HLD	89	192	1	48
HLD	89	192	3	48
TAP	89	288	4
TAP	89	288	6
TAP	89	336	4
STR	89	336	6
SCR	89	336	6	96	48	1
TAP	90	144	3
TAP	90	144	4
BRK	90	240	7
BRK	90	288	7
STR	91	0	2
SI_	91	0	2	96	48	7
STR	91	0	6
SCL	91	0	6	96	48	3
STR	91	192	1
SI_	91	192	1	96	48	4
STR	91	192	5
SCR	91	192	5	96	48	0
STR	92	0	2
SI_	92	0	2	96	48	5
STR	92	0	6
SCR	92	0	6	96	48	1
STR	92	192	1
SI_	92	192	1	96	48	6
STR	92	192	5
SCL	92	192	5	96	48	2
HLD	93	0	0	32
HLD	93	0	4	32
HLD	93	64	1	32
HLD	93	64	5	32
HLD	93	128	2	32
HLD	93	128	6	32
HLD	93	192	3	32
HLD	93	192	7	32
HLD	93	256	2	32
HLD	93	256	6	32
HLD	93	320	1	32
HLD	93	320	5	32
HLD	94	0	0	32
HLD	94	0	4	32
HLD	94	64	1	32
HLD	94	64	5	32
HLD	94	128	2	32
HLD	94	128	6	32
STR	94	192	3
SCL	94	192	3	96	48	0
STR	94	192	7
SCL	94	192	7	96	48	4
STR	95	0	0
SI_	95	0	0	96	48	4
HLD	95	48	0	48
STR	95	144	7
SI_	95	144	7	96	48	3
HLD	95	192	7	48
STR	95	288	6
SV_	95	288	6	96	48	1
HLD	95	336	6	48
STR	96	48	5
SCR	96	48	5	96	48	0
HLD	96	96	5	48
STR	96	192	4
SXL	96	192	4	96	48	6
HLD	96	240	4	48
STR	96	336	3
SUR	96	336	3	96	48	7
HLD	97	0	3	48
STR	97	96	2
SLR	97	96	2	96	48	6
HLD	97	144	2	48
STR	97	240	1
SXR	97	240	1	96	48	7
HLD	97	288	1	48
STR	98	0	0
SV_	98	0	0	96	48	3
HLD	98	48	0	48
TAP	98	144	7
STR	98	192	7
SF_	98	192	7	96	48	3
BRK	98	288	7
TAP	99	0	0
HLD	99	0	7	96
STR	99	96	5
SI_	99	96	5	96	48	2
TAP	99	192	0
TAP	99	192	5
BRK	99	288	1
BRK	99	288	6
HLD	100	0	0	96
TAP	100	0	7
STR	100	96	2
SI_	100	96	2	96	48	5
TAP	100	192	2
TAP	100	192	7
BRK	100	288	1
BRK	100	288	6
TAP	101	0	2
STR	101	0	3
SCL	101	0	3	96	48	0
TAP	101	48	4
TAP	101	96	5
STR	101	192	4
SCR	101	192	4	96	48	7
TAP	101	192	5
TAP	101	240	3
TAP	101	288	2
TAP	102	0	0
TAP	102	0	7
TAP	102	48	1
TAP	102	48	6
TAP	102	96	2
TAP	102	96	5
TAP	102	144	3
TAP	102	144	4
STR	102	192	3
SI_	102	192	3	96	48	0
STR	102	192	4
SI_	102	192	4	96	48	7
STR	103	0	4
SCR	103	0	4	96	48	7
TAP	103	0	5
TAP	103	48	3
TAP	103	96	1
TAP	103	192	2
STR	103	192	3
SCL	103	192	3	96	48	0
TAP	103	240	4
TAP	103	288	6
TAP	104	0	0
TAP	104	0	7
TAP	104	48	1
TAP	104	48	6
TAP	104	96	2
TAP	104	96	5
TAP	104	144	3
TAP	104	144	4
TAP	104	192	2
STR	104	192	5
SI_	104	192	5	96	48	1
BRK	104	240	1
BRK	104	288	0
TAP	105	0	2
TAP	105	24	3
TAP	105	48	2
TAP	105	72	3
STR	105	96	2
SI_	105	96	2	96	48	7
STR	105	192	6
SI_	105	192	6	96	48	3
STR	105	288	2
SCL	105	288	2	96	48	7
STR	106	0	6
SCL	106	0	6	96	48	3
TAP	106	96	2
TAP	106	144	1
TAP	106	192	0
TAP	106	240	6
TAP	106	264	7
TAP	106	288	6
TAP	107	0	5
TAP	107	24	4
TAP	107	48	5
TAP	107	72	4
STR	107	96	5
SI_	107	96	5	96	48	0
STR	107	192	1
SI_	107	192	1	96	48	4
STR	107	288	5
SCR	107	288	5	96	48	0
STR	108	0	1
SCR	108	0	1	96	48	4
TAP	108	96	6
TAP	108	144	7
TAP	108	192	2
TAP	108	216	3
TAP	108	240	1
TAP	108	264	4
BRK	108	288	0
TAP	109	0	5
TAP	109	32	4
TAP	109	64	6
TAP	109	96	1
TAP	109	128	0
TAP	109	160	2
TAP	109	192	5
TAP	109	224	4
TAP	109	256	6
TAP	109	288	1
TAP	109	320	0
TAP	109	352	2
STR	110	0	5
SI_	110	0	5	96	48	0
TAP	110	48	5
STR	110	96	2
SI_	110	96	2	96	48	7
TAP	110	144	2
STR	110	192	4
SI_	110	192	4	96	48	0
TAP	110	240	4
TAP	110	288	3
TAP	110	336	3
TAP	111	0	6
TAP	111	24	5
TAP	111	48	4
TAP	111	72	3
TAP	111	96	0
TAP	111	120	1
TAP	111	144	2
TAP	111	168	3
TAP	111	192	7
TAP	111	216	6
TAP	111	240	5
TAP	111	264	4
TAP	111	288	1
TAP	111	312	2
TAP	111	336	3
TAP	111	360	4
TAP	112	0	6
TAP	112	24	7
TAP	112	48	6
TAP	112	72	7
BRK	112	96	6
TAP	112	192	1
TAP	112	216	0
TAP	112	240	1
TAP	112	264	0
BRK	112	288	1
TAP	113	0	2
TAP	113	0	3
TAP	113	48	4
TAP	113	48	5
TAP	113	96	2
TAP	113	96	3
TAP	113	144	0
TAP	113	144	2
TAP	113	240	4
TAP	113	240	6
TAP	113	336	1
TAP	113	336	3
BRK	114	0	2
BRK	114	0	7

T_REC_TAP	407
T_REC_BRK	44
T_REC_XTP	0
T_REC_HLD	123
T_REC_XHO	0
T_REC_STR	169
T_REC_BST	4
T_REC_XST	0
T_REC_TTP	0
T_REC_THO	0
T_REC_SLD	186
T_REC_ALL	933
T_NUM_TAP	576
T_NUM_BRK	48
T_NUM_HLD	123
T_NUM_SLD	186
T_NUM_ALL	933
T_JUDGE_TAP	624
T_JUDGE_HLD	176
T_JUDGE_SLD	186
T_JUDGE_ALL	986
TTM_EACHPAIRS	204
TTM_SCR_TAP	288000
TTM_SCR_BRK	124800
TTM_SCR_HLD	123000
TTM_SCR_SLD	279000
TTM_SCR_ALL	814800
TTM_SCR_S	785700
TTM_SCR_SS	810000
TTM_RAT_ACV	10059

