VERSION	0.00.00	1.03.00
FES_MODE	0
BPM_DEF	190.000	190.000	190.000	190.000
MET_DEF	4	4
RESOLUTION	384
CLK_DEF	384
COMPATIBLE_CODE	MA2

BPM	0	0	190.000
MET	0	0	4	4
MET	28	0	4	3
MET	29	192	4	4
MET	31	192	4	3
MET	33	0	4	4

TAP	2	0	0
TAP	2	48	7
TAP	2	96	0
TAP	2	144	7
TAP	2	240	2
TAP	2	240	3
TAP	2	336	5
TAP	3	0	4
TAP	3	48	5
TAP	3	144	0
TAP	3	144	7
STR	3	192	0
SI_	3	192	0	96	48	2
STR	3	192	7
SI_	3	192	7	96	48	5
HLD	4	0	5	96
TAP	4	96	4
HLD	4	192	2	96
TAP	4	288	3
HLD	5	0	5	96
TAP	5	96	4
HLD	5	192	2	96
TAP	5	288	3
HLD	6	0	6	96
TAP	6	96	7
HLD	6	192	1	96
TAP	6	288	0
HLD	7	0	6	96
TAP	7	96	7
HLD	7	192	1	96
TAP	7	288	0
HLD	8	0	5	96
TAP	8	96	4
HLD	8	192	7	96
TAP	8	288	6
HLD	9	0	2	96
TAP	9	96	3
HLD	9	192	0	96
TAP	9	288	1
STR	10	0	6
SCL	10	0	6	96	48	3
STR	10	192	1
SCR	10	192	1	96	48	4
TAP	11	0	6
TAP	11	48	0
TAP	11	96	6
TAP	11	192	1
TAP	11	240	7
TAP	11	288	1
BRK	11	336	7
TAP	12	48	2
HLD	12	96	2	288
TAP	12	192	4
TAP	12	288	3
TAP	13	0	4
TAP	13	96	2
TAP	13	96	3
TAP	13	192	5
TAP	13	240	5
TAP	13	336	4
TAP	13	336	6
TAP	14	48	5
HLD	14	96	5	288
TAP	14	192	3
TAP	14	288	4
TAP	15	0	3
TAP	15	96	4
TAP	15	96	5
TAP	15	192	2
TAP	15	240	2
TAP	15	336	1
TAP	15	336	3
TAP	16	48	2
HLD	16	96	2	192
TAP	16	192	4
TAP	16	288	3
TAP	17	0	0
TAP	17	0	7
TAP	17	96	3
TAP	17	96	4
TAP	17	192	1
TAP	17	192	6
TAP	17	288	3
TAP	17	288	4
TAP	18	0	0
TAP	18	0	1
TAP	18	48	0
TAP	18	48	1
TAP	18	192	6
TAP	18	192	7
TAP	18	240	6
TAP	18	240	7
TAP	18	336	0
STR	18	336	7
SXL	18	336	7	96	240	4
TAP	20	0	0
TAP	20	0	2
HLD	20	96	2	288
TAP	20	192	7
TAP	20	288	0
TAP	21	0	7
TAP	21	96	0
TAP	21	96	1
TAP	21	192	6
TAP	21	240	6
TAP	21	336	5
TAP	21	336	7
TAP	22	48	5
HLD	22	96	5	288
TAP	22	192	0
TAP	22	288	7
TAP	23	0	0
TAP	23	96	6
TAP	23	96	7
TAP	23	192	1
TAP	23	240	1
TAP	23	336	0
TAP	23	336	2
TAP	24	48	2
HLD	24	96	2	192
TAP	24	192	7
TAP	24	288	0
TAP	25	0	3
TAP	25	0	4
TAP	25	96	0
TAP	25	96	7
TAP	25	192	2
TAP	25	192	5
TAP	25	288	0
TAP	25	288	7
TAP	26	0	0
TAP	26	0	1
TAP	26	48	0
TAP	26	48	1
TAP	26	192	6
TAP	26	192	7
TAP	26	240	6
TAP	26	240	7
STR	26	336	0
SXR	26	336	0	96	240	3
TAP	26	336	7
STR	28	0	0
SCL	28	0	0	96	96	5
STR	28	0	1
SUL	28	0	1	96	96	4
STR	28	288	6
SUR	28	288	6	96	96	3
STR	28	288	7
SCR	28	288	7	96	96	2
STR	29	192	0
SCR	29	192	0	96	96	3
STR	29	192	7
SCL	29	192	7	96	96	4
TAP	30	96	1
TAP	30	96	3
TAP	30	192	4
TAP	30	192	6
STR	30	288	6
SCL	30	288	6	96	96	4
STR	30	288	7
SUL	30	288	7	96	96	3
STR	31	192	0
SCL	31	192	0	96	96	5
STR	31	192	1
SUL	31	192	1	96	96	4
STR	32	96	6
SUR	32	96	6	96	96	3
STR	32	96	7
SCR	32	96	7	96	96	2
STR	33	0	3
SCL	33	0	3	96	96	0
STR	33	0	4
SCR	33	0	4	96	96	7
TAP	33	288	5
TAP	33	288	7
TAP	34	0	0
TAP	34	0	2
STR	34	96	0
SUR	34	96	0	96	96	4
STR	34	96	1
SCR	34	96	1	96	96	3
TAP	35	0	0
HLD	35	0	7	96
HLD	35	96	6	96
HLD	35	192	5	96
HLD	35	288	4	96
HLD	36	0	3	96
HLD	36	96	2	96
HLD	36	192	1	96
HLD	36	288	0	96
TAP	37	0	7
TAP	37	48	0
TAP	37	96	7
TAP	37	144	0
TAP	37	240	4
TAP	37	240	5
TAP	37	336	2
TAP	38	0	3
TAP	38	48	2
TAP	38	144	0
TAP	38	144	7
STR	38	192	0
SI_	38	192	0	96	48	3
STR	38	192	7
SI_	38	192	7	96	48	4
TAP	39	0	6
TAP	39	48	0
TAP	39	96	6
TAP	39	144	0
STR	39	192	6
SI_	39	192	6	96	48	3
TAP	39	288	7
TAP	40	0	1
TAP	40	48	7
TAP	40	96	1
TAP	40	144	7
STR	40	192	1
SI_	40	192	1	96	48	4
TAP	40	288	0
TAP	41	0	7
TAP	41	96	0
TAP	41	96	6
TAP	41	192	1
TAP	41	192	5
STR	41	288	2
SCL	41	288	2	96	192	5
STR	41	288	3
SUL	41	288	3	96	192	4
TAP	42	288	6
TAP	42	288	7
HLD	43	0	3	96
HLD	43	96	1	96
TAP	43	192	0
TAP	43	288	2
TAP	43	288	7
HLD	44	0	4	96
HLD	44	96	6	96
TAP	44	192	7
TAP	44	288	0
TAP	44	288	5
STR	45	0	2
SCL	45	0	2	96	48	7
TAP	45	96	3
STR	45	192	6
SCL	45	192	6	96	48	3
TAP	45	288	7
STR	46	0	0
SXL	46	0	0	96	192	3
SXR	46	0	0	96	192	5
TAP	47	0	1
TAP	47	48	7
TAP	47	96	1
TAP	47	144	7
STR	47	192	1
SI_	47	192	1	96	48	4
TAP	47	288	0
TAP	48	0	6
TAP	48	48	0
TAP	48	96	6
TAP	48	144	0
STR	48	192	6
SI_	48	192	6	96	48	3
TAP	48	288	7
TAP	49	0	0
TAP	49	96	1
TAP	49	96	7
TAP	49	192	2
TAP	49	192	6
STR	49	288	4
SUR	49	288	4	96	192	3
STR	49	288	5
SCR	49	288	5	96	192	2
TAP	50	288	0
TAP	50	288	1
HLD	51	0	4	96
HLD	51	96	6	96
TAP	51	192	7
TAP	51	288	0
TAP	51	288	5
HLD	52	0	3	96
HLD	52	96	1	96
TAP	52	192	0
TAP	52	288	2
TAP	52	288	7
STR	53	0	0
SLR	53	0	0	96	192	6
STR	53	0	5
SLL	53	0	5	96	192	7
STR	54	0	0
SXL	54	0	0	96	192	3
STR	54	0	7
SXR	54	0	7	96	192	4
STR	55	0	6
SI_	55	0	6	96	48	3
STR	55	144	1
SI_	55	144	1	96	48	4
STR	55	288	6
SI_	55	288	6	96	48	3
STR	56	48	1
SI_	56	48	1	96	48	4
STR	56	192	6
SI_	56	192	6	96	48	2
STR	56	336	1
SI_	56	336	1	96	48	5
STR	57	96	6
SI_	57	96	6	96	48	2
STR	57	240	1
SI_	57	240	1	96	48	5
STR	58	0	6
SI_	58	0	6	96	48	2
STR	58	144	1
SI_	58	144	1	96	48	6
TAP	59	0	6
STR	59	96	7
SI_	59	96	7	96	96	2
SI_	59	96	7	96	96	4
TAP	60	0	1
STR	60	96	0
SI_	60	96	0	96	96	3
SI_	60	96	0	96	96	5
BRK	61	0	6
TAP	61	48	7
TAP	61	96	6
BRK	61	192	1
TAP	61	240	0
TAP	61	288	1
BRK	62	0	6
TAP	62	48	1
TAP	62	96	6
TAP	62	144	1
STR	62	192	6
SI_	62	192	6	96	48	1
TAP	62	288	0
TAP	63	0	2
TAP	63	96	0
TAP	63	96	1
TAP	63	192	5
TAP	63	288	6
TAP	63	288	7
TAP	64	0	2
TAP	64	96	0
TAP	64	96	1
TAP	64	192	5
TAP	64	288	6
TAP	64	288	7
TAP	65	0	3
TAP	65	96	0
TAP	65	96	1
TAP	65	192	4
TAP	65	288	6
TAP	65	288	7
TAP	66	0	3
TAP	66	96	0
TAP	66	96	1
TAP	66	192	4
TAP	66	288	6
TAP	66	288	7
STR	67	0	1
SCR	67	0	1	96	48	4
STR	67	192	0
SCL	67	192	0	96	48	5
STR	68	0	4
SCL	68	0	4	96	48	1
STR	68	192	5
SCR	68	192	5	96	48	0
STR	69	0	2
SSL	69	0	2	96	192	6
TAP	70	0	5
TAP	70	48	3
TAP	70	96	5
TAP	70	192	2
TAP	70	240	4
TAP	70	288	2
TAP	71	0	1
TAP	71	0	3
TAP	71	96	1
TAP	71	96	3
TAP	71	192	3
TAP	71	192	5
TAP	71	288	3
TAP	71	288	5
STR	72	0	1
SV_	72	0	1	96	192	4
STR	72	0	7
SV_	72	0	7	96	192	4
TAP	73	0	1
TAP	73	0	7
TAP	73	96	1
TAP	73	96	7
TAP	73	192	5
TAP	73	192	7
TAP	73	288	5
TAP	73	288	7
STR	74	0	4
SXL	74	0	4	96	192	4
SXR	74	0	4	96	192	4
TAP	74	0	6
TAP	75	0	0
TAP	75	0	6
TAP	75	96	0
TAP	75	96	6
TAP	75	192	0
TAP	75	192	2
TAP	75	288	0
TAP	75	288	2
TAP	76	0	1
STR	76	0	3
SSR	76	0	3	96	192	7
TAP	77	0	2
TAP	77	0	5
TAP	77	96	2
TAP	77	96	5
TAP	77	192	1
TAP	77	192	6
TAP	77	288	1
TAP	77	288	6
HLD	78	0	0	192
HLD	78	0	7	192
HLD	79	0	3	384
TAP	79	96	4
TAP	79	288	4
HLD	80	0	4	384
TAP	80	96	3
TAP	80	288	3
HLD	81	0	2	384
TAP	81	96	4
TAP	81	288	4
HLD	82	0	5	384
TAP	82	96	3
TAP	82	288	3
HLD	83	0	0	96
HLD	83	96	1	96
TAP	83	192	2
TAP	83	288	0
TAP	83	288	3
HLD	84	0	7	96
HLD	84	96	6	96
TAP	84	192	5
TAP	84	288	4
TAP	84	288	7
TAP	85	0	2
TAP	85	0	3
TAP	85	48	2
TAP	85	48	3
TAP	85	192	4
TAP	85	192	5
TAP	85	240	4
TAP	85	240	5
TAP	86	0	5
TAP	86	0	7
TAP	86	96	3
TAP	86	96	5
TAP	86	192	1
TAP	86	192	3
TAP	86	288	0
TAP	86	288	7
TAP	87	0	6
TAP	87	48	7
TAP	87	96	5
TAP	87	144	7
STR	87	192	6
SCL	87	192	6	96	48	3
TAP	87	288	1
TAP	88	0	1
TAP	88	48	0
TAP	88	96	2
TAP	88	144	0
STR	88	192	1
SCR	88	192	1	96	48	4
TAP	88	288	6
TAP	89	0	7
TAP	89	96	0
TAP	89	96	6
TAP	89	192	1
TAP	89	192	5
STR	89	288	6
SUL	89	288	6	96	192	3
STR	89	288	7
SXL	89	288	7	96	192	2
HLD	91	0	3	96
HLD	91	96	1	96
TAP	91	192	0
TAP	91	288	2
TAP	91	288	7
HLD	92	0	4	96
HLD	92	96	6	96
TAP	92	192	7
TAP	92	288	0
TAP	92	288	5
STR	93	0	2
SLR	93	0	2	96	192	0
STR	93	0	7
SLL	93	0	7	96	192	1
STR	94	0	0
SXL	94	0	0	96	192	3
STR	94	0	7
SXR	94	0	7	96	192	4
STR	95	0	6
SI_	95	0	6	96	48	3
STR	95	144	1
SI_	95	144	1	96	48	4
STR	95	288	6
SI_	95	288	6	96	48	3
STR	96	48	1
SI_	96	48	1	96	48	4
STR	96	192	6
SI_	96	192	6	96	48	2
STR	96	336	1
SI_	96	336	1	96	48	5
STR	97	96	6
SI_	97	96	6	96	48	2
STR	97	240	1
SI_	97	240	1	96	48	5
STR	98	0	6
SI_	98	0	6	96	48	2
STR	98	144	1
SI_	98	144	1	96	48	6
TAP	99	0	6
STR	99	96	7
SI_	99	96	7	96	96	2
SI_	99	96	7	96	96	4
TAP	100	0	1
STR	100	96	0
SI_	100	96	0	96	96	3
SI_	100	96	0	96	96	5
BRK	101	0	1
BRK	101	0	3
TAP	101	48	1
TAP	101	48	3
TAP	101	96	1
TAP	101	96	3
BRK	101	192	5
BRK	101	192	7
TAP	101	240	5
TAP	101	240	7
TAP	101	288	5
TAP	101	288	7
BRK	102	0	2
TAP	102	48	5
TAP	102	96	2
TAP	102	144	5
TAP	102	192	2
TAP	102	288	0
TAP	102	288	7
BRK	103	0	5
BRK	103	0	7
TAP	103	48	5
TAP	103	48	7
TAP	103	96	5
TAP	103	96	7
BRK	103	192	1
BRK	103	192	3
TAP	103	240	1
TAP	103	240	3
TAP	103	288	1
TAP	103	288	3
BRK	104	0	6
TAP	104	48	1
TAP	104	96	6
TAP	104	144	1
STR	104	192	6
SI_	104	192	6	96	48	1
BRK	104	288	0
TAP	105	0	2
TAP	105	96	1
TAP	105	96	3
TAP	105	192	5
TAP	105	288	4
TAP	105	288	6
TAP	106	0	1
TAP	106	96	0
TAP	106	96	2
TAP	106	192	6
TAP	106	288	5
TAP	106	288	7
TAP	107	0	1
TAP	107	96	2
TAP	107	96	3
TAP	107	192	6
TAP	107	288	4
TAP	107	288	5
TAP	108	0	2
TAP	108	96	0
TAP	108	96	1
TAP	108	192	5
TAP	108	288	6
TAP	108	288	7
STR	109	0	1
SI_	109	0	1	96	48	6
STR	109	192	5
SI_	109	192	5	96	48	2
STR	110	0	1
SI_	110	0	1	96	48	6
STR	110	192	5
SI_	110	192	5	96	48	2
STR	111	0	1
SCR	111	0	1	96	48	4
TAP	111	96	0
STR	111	192	6
SCL	111	192	6	96	48	3
TAP	111	288	7
TAP	112	0	1
TAP	112	48	7
TAP	112	96	1
TAP	112	192	6
TAP	112	240	0
TAP	112	288	6
TAP	113	0	5
TAP	113	48	4
TAP	113	96	5
TAP	113	144	4
TAP	113	240	2
TAP	113	240	3
TAP	113	336	0
TAP	113	336	7
BRK	114	0	1
BRK	114	0	6

T_REC_TAP	370
T_REC_BRK	17
T_REC_XTP	0
T_REC_HLD	48
T_REC_XHO	0
T_REC_STR	88
T_REC_BST	0
T_REC_XST	0
T_REC_TTP	0
T_REC_THO	0
T_REC_SLD	94
T_REC_ALL	617
T_NUM_TAP	458
T_NUM_BRK	17
T_NUM_HLD	48
T_NUM_SLD	94
T_NUM_ALL	617
T_JUDGE_TAP	475
T_JUDGE_HLD	144
T_JUDGE_SLD	94
T_JUDGE_ALL	713
TTM_EACHPAIRS	129
TTM_SCR_TAP	229000
TTM_SCR_BRK	44200
TTM_SCR_HLD	48000
TTM_SCR_SLD	141000
TTM_SCR_ALL	462200
TTM_SCR_S	446700
TTM_SCR_SS	460500
TTM_RAT_ACV	10036

