VERSION	0.00.00	1.03.00
FES_MODE	0
BPM_DEF	190.000	190.000	190.000	190.000
MET_DEF	4	4
RESOLUTION	384
CLK_DEF	384
COMPATIBLE_CODE	MA2

BPM	0	0	190.000
MET	0	0	4	4
MET	28	0	4	3
MET	29	192	4	4
MET	31	192	4	3
MET	33	0	4	4

TAP	2	0	2
TAP	2	96	2
TAP	2	96	3
TAP	2	192	5
TAP	2	288	4
TAP	2	288	5
TAP	3	0	3
TAP	3	0	4
TAP	3	96	2
TAP	3	96	5
TAP	3	192	1
TAP	3	192	6
TAP	4	0	1
TAP	4	96	1
TAP	4	192	0
TAP	4	288	0
TAP	5	0	6
TAP	5	0	7
TAP	5	192	6
TAP	5	192	7
TAP	6	0	6
TAP	6	96	6
TAP	6	192	7
TAP	6	288	7
TAP	7	0	0
TAP	7	0	1
TAP	7	192	0
TAP	7	192	1
STR	8	0	1
SCR	8	0	1	96	192	4
STR	9	0	5
SCR	9	0	5	96	216	1
TAP	10	0	2
TAP	10	96	2
TAP	10	96	3
TAP	10	192	5
TAP	10	288	4
TAP	10	288	5
HLD	11	0	2	96
HLD	11	0	3	96
HLD	11	192	4	96
HLD	11	192	5	96
STR	12	0	3
SXR	12	0	3	96	360	0
STR	12	0	4
SXL	12	0	4	96	360	7
TAP	13	192	0
TAP	13	192	7
TAP	14	0	1
TAP	14	96	1
TAP	14	192	2
TAP	14	288	2
TAP	15	0	3
TAP	15	96	3
TAP	15	192	4
TAP	15	192	5
TAP	16	0	2
TAP	16	96	2
TAP	16	192	2
TAP	16	192	3
TAP	17	0	5
TAP	17	96	5
TAP	17	192	4
TAP	17	192	5
TAP	18	0	2
TAP	18	0	3
STR	18	192	3
SXR	18	192	3	96	240	1
STR	18	192	4
SXL	18	192	4	96	240	6
TAP	20	0	2
TAP	20	96	2
TAP	20	192	1
TAP	20	288	1
TAP	21	0	0
TAP	21	96	0
TAP	21	192	6
TAP	21	192	7
TAP	22	0	6
TAP	22	96	6
TAP	22	192	5
TAP	22	288	5
TAP	23	0	4
TAP	23	96	4
TAP	23	192	2
TAP	23	192	3
TAP	24	0	5
TAP	24	96	5
TAP	24	192	4
TAP	24	192	5
TAP	25	0	2
TAP	25	96	2
TAP	25	192	2
TAP	25	192	3
TAP	26	0	4
TAP	26	0	5
TAP	26	192	2
TAP	26	192	3
STR	27	0	3
SUR	27	0	3	96	192	0
TAP	27	0	4
HLD	28	0	6	192
TAP	28	96	7
TAP	28	192	7
HLD	28	288	1	192
TAP	29	0	0
TAP	29	96	0
HLD	29	192	7	192
TAP	29	288	0
TAP	30	0	0
TAP	30	192	0
TAP	30	192	7
TAP	30	288	1
TAP	30	288	6
TAP	31	0	2
TAP	31	0	5
HLD	31	192	2	192
TAP	31	288	3
TAP	32	0	3
HLD	32	96	5	192
TAP	32	192	4
TAP	32	288	4
HLD	33	0	3	192
TAP	33	96	4
TAP	33	192	4
TAP	34	0	3
TAP	34	0	4
TAP	34	96	2
TAP	34	96	5
TAP	34	192	1
TAP	34	192	6
HLD	35	0	1	192
TAP	35	192	0
HLD	36	0	6	192
TAP	36	192	7
BST	37	0	0
SXL	37	0	0	96	384	3
BST	37	0	7
SXR	37	0	7	96	384	4
TAP	39	0	3
TAP	39	96	2
TAP	39	96	3
TAP	39	192	1
TAP	39	192	4
TAP	40	0	4
TAP	40	96	4
TAP	40	96	5
TAP	40	192	3
TAP	40	192	6
TAP	41	0	2
TAP	41	0	3
TAP	41	96	2
TAP	41	96	3
TAP	41	192	4
TAP	41	192	5
TAP	41	288	4
TAP	41	288	5
STR	42	0	3
SXR	42	0	3	96	192	1
STR	42	0	4
SXL	42	0	4	96	192	6
STR	43	0	4
SUL	43	0	4	96	240	3
STR	44	0	2
SUL	44	0	2	96	240	1
STR	45	0	0
SCL	45	0	0	96	432	1
TAP	47	0	7
TAP	47	96	6
TAP	47	96	7
TAP	47	192	0
TAP	47	192	5
TAP	48	0	0
TAP	48	96	0
TAP	48	96	1
TAP	48	192	2
TAP	48	192	7
TAP	49	0	6
TAP	49	0	7
TAP	49	96	6
TAP	49	96	7
TAP	49	192	0
TAP	49	192	1
TAP	49	288	0
TAP	49	288	1
STR	50	0	0
SXL	50	0	0	96	192	2
STR	50	0	7
SXR	50	0	7	96	192	5
TAP	51	0	1
TAP	51	96	0
TAP	51	192	2
TAP	51	192	7
TAP	52	0	6
TAP	52	96	7
TAP	52	192	0
TAP	52	192	5
TAP	53	0	0
TAP	53	96	7
TAP	53	192	1
TAP	53	192	6
HLD	54	0	1	192
HLD	54	0	6	192
HLD	55	0	0	144
HLD	55	0	1	144
HLD	55	288	0	144
HLD	55	288	1	144
HLD	56	192	6	144
HLD	56	192	7	144
HLD	57	96	6	144
HLD	57	96	7	144
TAP	58	0	0
TAP	58	0	1
TAP	58	96	0
TAP	58	96	1
TAP	58	192	2
TAP	58	192	7
TAP	59	0	6
TAP	59	96	6
TAP	59	192	6
TAP	59	192	7
TAP	60	0	1
TAP	60	96	1
TAP	60	192	0
TAP	60	192	1
TAP	61	0	6
TAP	61	96	6
TAP	61	96	7
TAP	61	192	1
TAP	61	288	0
TAP	61	288	1
TAP	62	0	0
TAP	62	0	7
TAP	62	96	1
TAP	62	96	6
BRK	62	192	2
BRK	62	192	5
TAP	63	0	2
TAP	63	96	2
TAP	63	192	3
TAP	63	288	3
TAP	64	0	4
TAP	64	0	5
TAP	64	192	4
TAP	64	192	5
TAP	65	0	5
TAP	65	96	5
TAP	65	192	4
TAP	65	288	4
TAP	66	0	2
TAP	66	0	3
TAP	66	192	2
TAP	66	192	3
STR	67	0	2
SCL	67	0	2	96	192	7
STR	68	0	5
SCR	68	0	5	96	192	0
TAP	69	0	2
TAP	69	96	2
TAP	69	96	3
TAP	69	192	5
TAP	69	288	4
TAP	69	288	5
HLD	70	0	2	96
HLD	70	0	3	96
HLD	70	192	4	96
HLD	70	192	5	96
TAP	71	0	3
TAP	71	96	3
TAP	71	192	4
TAP	71	288	4
STR	72	0	3
SI_	72	0	3	96	144	1
STR	72	0	4
SI_	72	0	4	96	144	6
TAP	73	0	7
TAP	73	96	7
TAP	73	192	0
TAP	73	288	0
STR	74	0	0
SI_	74	0	0	96	192	4
STR	74	0	7
SI_	74	0	7	96	192	3
TAP	75	0	2
TAP	75	96	3
TAP	75	192	5
TAP	75	288	4
STR	76	0	3
SSR	76	0	3	96	336	7
TAP	77	192	0
TAP	77	288	7
BRK	78	0	0
BRK	78	0	7
HLD	79	0	6	192
TAP	79	192	7
HLD	80	0	1	192
TAP	80	192	0
HLD	81	0	7	192
HLD	81	192	0	192
STR	82	0	7
SXR	82	0	7	96	192	5
STR	83	0	3
SCL	83	0	3	96	168	1
STR	84	0	0
SCL	84	0	0	96	192	5
STR	85	0	4
SCL	85	0	4	96	144	1
STR	86	0	0
SCR	86	0	0	96	192	3
STR	86	0	7
SCL	86	0	7	96	192	4
TAP	87	0	4
TAP	87	96	4
TAP	87	96	5
TAP	87	192	3
TAP	87	192	6
TAP	88	0	3
TAP	88	96	2
TAP	88	96	3
TAP	88	192	1
TAP	88	192	4
TAP	89	0	4
TAP	89	0	5
TAP	89	96	2
TAP	89	96	3
TAP	89	192	4
TAP	89	192	5
TAP	89	288	2
TAP	89	288	3
STR	90	0	3
SXR	90	0	3	96	192	1
STR	90	0	4
SXL	90	0	4	96	192	6
HLD	91	0	5	96
TAP	91	96	4
TAP	91	192	3
TAP	91	192	6
HLD	92	0	2	96
TAP	92	96	3
TAP	92	192	1
TAP	92	192	4
TAP	93	0	4
TAP	93	96	3
TAP	93	192	2
TAP	93	192	5
STR	94	0	3
SI_	94	0	3	96	144	0
STR	94	0	4
SI_	94	0	4	96	144	7
HLD	95	0	0	144
HLD	95	0	1	144
HLD	95	288	6	144
HLD	95	288	7	144
HLD	96	192	0	144
HLD	96	192	1	144
HLD	97	96	6	144
HLD	97	96	7	144
TAP	98	0	0
TAP	98	0	7
TAP	98	96	0
TAP	98	96	7
TAP	98	192	1
TAP	98	192	6
TAP	99	0	1
TAP	99	96	0
TAP	99	192	2
TAP	99	192	7
TAP	100	0	6
TAP	100	96	7
TAP	100	192	0
TAP	100	192	5
TAP	101	0	1
TAP	101	96	0
TAP	101	96	1
TAP	101	192	6
TAP	101	288	6
TAP	101	288	7
TAP	102	0	0
TAP	102	0	7
TAP	102	96	1
TAP	102	96	6
BRK	102	192	2
BRK	102	192	5
TAP	103	0	1
TAP	103	96	0
TAP	103	96	1
TAP	103	192	6
TAP	103	288	6
TAP	103	288	7
TAP	104	0	0
TAP	104	0	7
TAP	104	96	1
TAP	104	96	6
BST	104	192	2
SI_	104	192	2	96	96	0
BST	104	192	5
SI_	104	192	5	96	96	7
TAP	105	192	7
TAP	105	288	7
TAP	106	0	0
TAP	106	0	1
TAP	106	96	0
TAP	106	96	1
TAP	106	192	2
TAP	106	192	7
TAP	107	0	1
TAP	107	96	1
TAP	107	192	0
TAP	107	288	0
TAP	108	0	6
TAP	108	0	7
TAP	108	96	6
TAP	108	96	7
TAP	108	192	0
TAP	108	192	5
STR	109	0	6
SCL	109	0	6	96	192	3
STR	110	0	2
SCL	110	0	2	96	216	6
TAP	111	0	5
TAP	111	96	4
TAP	111	96	5
TAP	111	192	2
TAP	111	288	2
TAP	111	288	3
HLD	112	0	4	96
HLD	112	0	5	96
HLD	112	192	2	96
HLD	112	192	3	96
TAP	113	0	3
TAP	113	0	4
TAP	113	96	3
TAP	113	96	4
TAP	113	192	2
TAP	113	192	5
TAP	113	288	1
TAP	113	288	6
BRK	114	0	0
BRK	114	0	7

T_REC_TAP	313
T_REC_BRK	8
T_REC_XTP	0
T_REC_HLD	44
T_REC_XHO	0
T_REC_STR	33
T_REC_BST	4
T_REC_XST	0
T_REC_TTP	0
T_REC_THO	0
T_REC_SLD	37
T_REC_ALL	439
T_NUM_TAP	346
T_NUM_BRK	12
T_NUM_HLD	44
T_NUM_SLD	37
T_NUM_ALL	439
T_JUDGE_TAP	358
T_JUDGE_HLD	132
T_JUDGE_SLD	37
T_JUDGE_ALL	527
TTM_EACHPAIRS	129
TTM_SCR_TAP	173000
TTM_SCR_BRK	31200
TTM_SCR_HLD	44000
TTM_SCR_SLD	55500
TTM_SCR_ALL	303700
TTM_SCR_S	293450
TTM_SCR_SS	302500
TTM_RAT_ACV	10039

