VERSION	0.00.00	1.03.00
FES_MODE	0
BPM_DEF	190.000	190.000	190.000	190.000
MET_DEF	4	4
RESOLUTION	384
CLK_DEF	384
COMPATIBLE_CODE	MA2

BPM	0	0	190.000
MET	0	0	4	4

TAP	4	0	0
TAP	4	192	0
TAP	5	0	1
TAP	5	192	1
TAP	6	0	2
TAP	6	192	2
TAP	7	0	3
TAP	7	0	4
TAP	7	192	3
TAP	7	192	4
HLD	8	0	4	192
HLD	9	0	5	192
TAP	10	0	6
TAP	10	192	6
TAP	11	0	0
TAP	11	0	7
TAP	11	192	0
TAP	11	192	7
TAP	12	0	7
TAP	12	192	7
TAP	13	0	7
TAP	13	96	7
TAP	13	192	7
TAP	14	0	6
TAP	14	192	6
TAP	15	0	6
TAP	15	96	6
TAP	15	192	6
TAP	16	0	5
TAP	16	192	5
TAP	17	0	5
TAP	17	96	5
TAP	17	192	5
TAP	18	0	4
TAP	18	0	5
TAP	18	192	4
TAP	18	192	5
TAP	19	0	2
TAP	19	0	3
TAP	19	192	2
TAP	19	192	3
TAP	20	0	3
TAP	20	192	3
TAP	21	0	3
TAP	21	96	3
TAP	21	192	3
TAP	22	0	2
TAP	22	192	2
TAP	23	0	2
TAP	23	96	2
TAP	23	192	2
TAP	24	0	1
TAP	24	192	1
TAP	25	0	1
TAP	25	96	1
TAP	25	192	1
TAP	26	0	0
TAP	26	0	1
TAP	26	192	0
TAP	26	192	1
TAP	27	0	6
TAP	27	0	7
TAP	27	192	6
TAP	27	192	7
TAP	28	0	0
STR	28	192	0
SI_	28	192	0	96	288	4
TAP	30	192	6
TAP	31	0	6
TAP	31	192	7
STR	32	0	7
SI_	32	0	7	96	288	3
TAP	34	0	1
TAP	34	192	1
TAP	35	0	0
TAP	35	0	1
TAP	35	192	0
TAP	35	192	1
TAP	36	0	6
TAP	36	0	7
TAP	36	192	6
TAP	36	192	7
STR	37	0	0
SI_	37	0	0	96	288	3
STR	37	0	7
SI_	37	0	7	96	288	4
TAP	39	0	3
TAP	39	96	3
TAP	39	192	3
TAP	40	0	2
TAP	40	96	2
TAP	40	192	2
TAP	41	0	1
TAP	41	96	1
TAP	41	192	1
TAP	42	0	0
TAP	42	96	7
TAP	42	192	0
TAP	43	0	7
TAP	43	96	7
TAP	43	192	7
TAP	44	0	6
TAP	44	96	6
TAP	44	192	6
TAP	45	0	5
TAP	45	96	5
TAP	45	192	5
TAP	46	0	3
TAP	46	0	4
TAP	46	96	3
TAP	46	96	4
TAP	46	192	3
TAP	46	192	4
TAP	47	0	4
TAP	47	96	4
TAP	47	192	4
TAP	48	0	5
TAP	48	96	5
TAP	48	192	5
TAP	49	0	6
TAP	49	96	6
TAP	49	192	6
TAP	50	0	7
TAP	50	96	0
TAP	50	192	7
TAP	51	0	0
TAP	51	96	0
TAP	51	192	0
TAP	52	0	1
TAP	52	96	1
TAP	52	192	1
TAP	53	0	2
TAP	53	0	3
TAP	53	192	2
TAP	53	192	3
TAP	54	0	4
TAP	54	0	5
TAP	54	192	4
TAP	54	192	5
TAP	55	0	3
TAP	55	96	3
TAP	55	192	2
TAP	55	288	2
TAP	56	0	1
TAP	56	96	1
TAP	56	192	0
TAP	56	288	0
TAP	57	0	7
TAP	57	96	7
TAP	57	192	6
TAP	57	288	6
TAP	58	0	5
TAP	58	96	5
TAP	58	192	3
TAP	58	192	4
TAP	59	0	2
TAP	59	96	2
TAP	59	192	2
TAP	59	192	3
TAP	60	0	5
TAP	60	96	5
TAP	60	192	4
TAP	60	192	5
TAP	61	0	4
TAP	61	0	5
TAP	61	192	2
TAP	61	192	3
TAP	62	0	4
TAP	62	96	3
BRK	62	192	4
TAP	63	0	3
TAP	63	192	3
TAP	64	0	2
TAP	64	192	2
TAP	65	0	1
TAP	65	192	1
TAP	66	0	0
TAP	66	0	7
TAP	66	192	0
TAP	66	192	7
TAP	67	0	7
TAP	67	192	7
TAP	68	0	6
TAP	68	192	6
TAP	69	0	5
TAP	69	192	5
TAP	70	0	3
TAP	70	0	4
TAP	70	192	3
TAP	70	192	4
TAP	71	0	2
TAP	71	0	3
TAP	71	192	2
TAP	71	192	3
TAP	72	0	2
TAP	72	96	3
TAP	72	192	2
TAP	73	0	4
TAP	73	0	5
TAP	73	192	4
TAP	73	192	5
TAP	74	0	5
TAP	74	96	4
TAP	74	192	5
TAP	75	0	6
TAP	75	0	7
TAP	75	192	6
TAP	75	192	7
TAP	76	0	6
TAP	76	96	7
TAP	76	192	6
TAP	77	0	0
TAP	77	0	1
TAP	77	192	0
TAP	77	192	1
BRK	78	0	0
BRK	78	0	1
STR	79	0	7
SI_	79	0	7	96	288	4
STR	81	0	0
SI_	81	0	0	96	288	3
STR	83	0	6
SI_	83	0	6	96	288	3
TAP	85	0	1
TAP	85	192	1
TAP	86	0	0
TAP	86	0	7
TAP	86	96	0
TAP	86	96	7
BRK	86	192	0
BRK	86	192	7
TAP	87	0	7
TAP	87	96	7
TAP	87	192	6
TAP	87	288	6
TAP	88	0	5
TAP	88	96	5
TAP	88	192	4
TAP	89	0	3
TAP	89	96	4
TAP	89	192	3
TAP	90	0	4
TAP	90	96	3
TAP	90	192	4
TAP	91	0	3
TAP	91	96	3
TAP	91	192	2
TAP	91	288	2
TAP	92	0	1
TAP	92	96	1
TAP	92	192	0
TAP	93	0	0
TAP	93	0	7
TAP	93	192	0
TAP	93	192	7
HLD	94	0	1	192
HLD	94	0	6	192
TAP	95	0	0
TAP	95	96	0
TAP	95	192	1
TAP	95	288	1
TAP	96	0	2
TAP	96	96	2
TAP	96	192	3
TAP	96	288	3
TAP	97	0	4
TAP	97	96	4
TAP	97	192	5
TAP	97	288	5
TAP	98	0	6
TAP	98	96	6
TAP	98	192	0
TAP	98	192	7
TAP	99	0	0
TAP	99	96	0
TAP	99	192	0
TAP	99	192	7
TAP	100	0	7
TAP	100	96	7
TAP	100	192	0
TAP	100	192	7
TAP	101	0	0
TAP	101	0	1
TAP	101	192	6
TAP	101	192	7
TAP	102	0	0
TAP	102	96	7
TAP	102	192	0
TAP	103	0	6
TAP	103	0	7
TAP	103	192	0
TAP	103	192	1
TAP	104	0	7
TAP	104	96	0
BRK	104	192	7
TAP	105	0	0
TAP	105	192	0
TAP	106	0	1
TAP	106	192	1
TAP	107	0	2
TAP	107	192	2
TAP	108	0	3
TAP	108	96	4
TAP	108	192	3
TAP	109	0	4
TAP	109	192	4
TAP	110	0	5
TAP	110	192	5
TAP	111	0	6
TAP	111	192	6
TAP	112	0	7
TAP	112	192	7
STR	113	0	0
SI_	113	0	0	96	288	4

T_REC_TAP	288
T_REC_BRK	6
T_REC_XTP	0
T_REC_HLD	4
T_REC_XHO	0
T_REC_STR	8
T_REC_BST	0
T_REC_XST	0
T_REC_TTP	0
T_REC_THO	0
T_REC_SLD	8
T_REC_ALL	314
T_NUM_TAP	296
T_NUM_BRK	6
T_NUM_HLD	4
T_NUM_SLD	8
T_NUM_ALL	314
T_JUDGE_TAP	302
T_JUDGE_HLD	16
T_JUDGE_SLD	8
T_JUDGE_ALL	326
TTM_EACHPAIRS	55
TTM_SCR_TAP	148000
TTM_SCR_BRK	15600
TTM_SCR_HLD	4000
TTM_SCR_SLD	12000
TTM_SCR_ALL	179600
TTM_SCR_S	173650
TTM_SCR_SS	179000
TTM_RAT_ACV	10033

