VERSION	0.00.00	1.03.00
FES_MODE	0
BPM_DEF	190.000	190.000	190.000	190.000
MET_DEF	4	4
RESOLUTION	384
CLK_DEF	384
COMPATIBLE_CODE	MA2

BPM	0	0	190.000
MET	0	0	4	4
MET	1	0	4	1
MET	1	96	4	4
MET	57	96	4	3
MET	69	96	4	2
MET	69	288	4	4

TAP	1	288	3
TAP	1	312	4
TAP	1	336	3
TAP	1	360	4
TAP	2	0	3
TAP	2	48	2
TAP	2	96	1
STR	2	144	0
SI_	2	144	0	96	48	4
TAP	2	240	0
TAP	2	288	6
TAP	2	336	5
TAP	3	0	4
TAP	3	48	5
TAP	3	96	6
STR	3	144	7
SI_	3	144	7	96	48	3
TAP	3	240	7
TAP	3	288	1
TAP	3	336	2
TAP	4	0	3
TAP	4	48	2
TAP	4	96	1
STR	4	144	0
SI_	4	144	0	96	48	4
TAP	4	240	0
TAP	4	288	6
TAP	4	336	5
TAP	5	0	4
TAP	5	48	5
TAP	5	96	6
STR	5	144	7
SI_	5	144	7	96	48	3
TAP	5	240	7
TAP	5	288	0
TAP	5	336	1
STR	6	0	3
SCR	6	0	3	96	48	6
TAP	6	48	2
TAP	6	96	1
STR	6	144	0
SI_	6	144	0	96	48	4
TAP	6	240	0
TAP	6	288	6
TAP	6	336	5
STR	7	0	4
SCL	7	0	4	96	48	1
TAP	7	48	5
TAP	7	96	6
STR	7	144	7
SI_	7	144	7	96	48	3
TAP	7	240	7
TAP	7	288	1
TAP	7	336	2
STR	8	0	3
SCR	8	0	3	96	48	6
TAP	8	48	2
TAP	8	96	1
STR	8	144	0
SI_	8	144	0	96	48	4
TAP	8	240	0
TAP	8	288	6
TAP	8	336	5
STR	9	0	4
SCL	9	0	4	96	48	1
TAP	9	48	5
TAP	9	96	6
STR	9	144	7
SI_	9	144	7	96	48	3
TAP	9	240	7
TAP	9	288	0
TAP	9	336	1
STR	10	0	0
SI_	10	0	0	96	48	4
HLD	10	0	6	96
HLD	10	192	2	96
STR	10	192	4
SI_	10	192	4	96	48	0
STR	11	0	0
SCR	11	0	0	96	96	3
TAP	11	0	6
STR	11	96	3
SCR	11	96	3	96	96	6
STR	11	192	6
SCR	11	192	6	96	96	1
STR	11	288	1
SCR	11	288	1	96	192	7
TAP	12	288	6
TAP	12	336	3
TAP	13	0	4
STR	13	48	1
SI_	13	48	1	96	48	4
STR	13	144	1
SI_	13	144	1	96	48	5
TAP	13	240	1
TAP	13	336	0
HLD	14	0	1	96
STR	14	0	7
SI_	14	0	7	96	48	3
STR	14	192	3
SI_	14	192	3	96	48	7
HLD	14	192	5	96
TAP	15	0	0
STR	15	0	6
SCL	15	0	6	96	96	3
STR	15	96	3
SCL	15	96	3	96	96	0
STR	15	192	0
SCL	15	192	0	96	96	5
STR	15	288	5
SCL	15	288	5	96	192	6
TAP	16	288	1
TAP	16	336	4
TAP	17	0	3
STR	17	48	6
SI_	17	48	6	96	48	3
STR	17	144	6
SI_	17	144	6	96	48	2
TAP	17	240	6
TAP	17	336	0
STR	18	0	1
SI_	18	0	1	96	48	5
HLD	18	0	7	96
HLD	18	192	3	96
STR	18	192	5
SI_	18	192	5	96	48	1
TAP	19	0	0
STR	19	0	2
SCR	19	0	2	96	96	5
STR	19	96	5
SCR	19	96	5	96	96	0
STR	19	192	0
SCR	19	192	0	96	96	3
STR	19	288	3
SCR	19	288	3	96	192	2
TAP	20	288	6
TAP	20	336	4
TAP	21	0	3
STR	21	48	1
SI_	21	48	1	96	48	4
STR	21	144	1
SI_	21	144	1	96	48	5
TAP	21	240	1
TAP	21	336	7
HLD	22	0	0	96
STR	22	0	6
SI_	22	0	6	96	48	2
STR	22	192	2
SI_	22	192	2	96	48	6
HLD	22	192	4	96
STR	23	0	5
SCL	23	0	5	96	96	2
TAP	23	0	7
STR	23	96	2
SCL	23	96	2	96	96	7
STR	23	192	7
SCL	23	192	7	96	96	4
STR	23	288	4
SCL	23	288	4	96	192	5
TAP	24	336	2
TAP	24	360	1
TAP	25	0	0
STR	25	48	6
SI_	25	48	6	96	48	3
TAP	25	144	6
TAP	25	144	7
TAP	25	240	2
TAP	25	240	5
TAP	25	288	2
TAP	25	288	5
STR	26	0	3
SI_	26	0	3	96	48	0
SI_	26	0	3	96	48	6
STR	26	192	4
SI_	26	192	4	96	48	1
SI_	26	192	4	96	48	7
STR	27	0	2
SI_	27	0	2	96	48	5
SI_	27	0	2	96	48	7
STR	27	192	5
SI_	27	192	5	96	48	0
SI_	27	192	5	96	48	2
STR	28	0	3
SI_	28	0	3	96	48	0
SI_	28	0	3	96	48	6
STR	28	192	4
SI_	28	192	4	96	48	1
SI_	28	192	4	96	48	7
STR	29	0	3
SF_	29	0	3	96	48	7
STR	29	192	4
SF_	29	192	4	96	48	0
STR	30	0	2
SF_	30	0	2	96	48	6
STR	30	192	5
SF_	30	192	5	96	48	1
STR	31	0	3
SF_	31	0	3	96	48	7
STR	31	192	4
SF_	31	192	4	96	48	0
STR	32	0	0
SXL	32	0	0	96	144	3
STR	32	0	7
SXR	32	0	7	96	144	4
TAP	32	288	1
TAP	32	288	5
HLD	33	0	2	96
HLD	33	0	6	96
STR	33	192	3
SCL	33	192	3	96	48	1
STR	33	192	4
SUL	33	192	4	96	48	0
STR	33	288	3
SUR	33	288	3	96	240	4
STR	33	288	4
SCR	33	288	4	96	240	3
BRK	34	0	3
BRK	34	0	4
TAP	34	288	7
TAP	34	336	0
STR	35	0	1
SI_	35	0	1	96	48	5
TAP	35	48	1
STR	35	96	7
SI_	35	96	7	96	48	2
TAP	35	144	7
STR	35	192	4
SI_	35	192	4	96	48	0
TAP	35	240	4
STR	35	288	6
SCL	35	288	6	96	192	7
HLD	36	0	2	192
TAP	36	288	3
TAP	36	288	4
STR	37	0	1
SI_	37	0	1	96	48	4
STR	37	0	5
SI_	37	0	5	96	48	0
STR	37	192	3
SCL	37	192	3	96	48	0
STR	37	192	7
SCL	37	192	7	96	48	4
STR	38	0	4
SCR	38	0	4	96	144	1
STR	38	0	7
SUR	38	0	7	96	144	1
TAP	38	288	3
TAP	38	288	6
STR	39	0	2
SI_	39	0	2	96	48	6
TAP	39	48	2
STR	39	96	0
SI_	39	96	0	96	48	4
TAP	39	144	0
STR	39	192	3
SI_	39	192	3	96	48	6
TAP	39	240	3
STR	39	288	0
SCL	39	288	0	96	96	4
STR	40	0	4
SCL	40	0	4	96	144	6
TAP	40	288	0
TAP	40	288	7
HLD	41	0	1	96
HLD	41	0	6	96
STR	41	192	3
SUR	41	192	3	96	48	7
STR	41	192	4
SCR	41	192	4	96	48	6
STR	41	288	3
SCL	41	288	3	96	240	4
STR	41	288	4
SUL	41	288	4	96	240	3
TAP	42	0	3
TAP	42	0	4
TAP	42	288	0
TAP	42	288	1
STR	43	0	6
SI_	43	0	6	96	48	2
TAP	43	48	6
STR	43	96	0
SI_	43	96	0	96	48	5
TAP	43	144	0
STR	43	192	3
SI_	43	192	3	96	48	7
TAP	43	240	3
STR	43	288	1
SCR	43	288	1	96	192	0
HLD	44	0	5	192
TAP	44	288	3
TAP	44	288	4
STR	45	0	2
SI_	45	0	2	96	48	7
STR	45	0	6
SI_	45	0	6	96	48	3
STR	45	192	0
SCR	45	192	0	96	48	3
STR	45	192	4
SCR	45	192	4	96	48	7
STR	46	0	0
SUL	46	0	0	96	144	6
STR	46	0	3
SCL	46	0	3	96	144	6
TAP	46	288	1
TAP	46	288	4
STR	47	0	5
SI_	47	0	5	96	48	1
TAP	47	48	5
STR	47	96	7
SI_	47	96	7	96	48	3
TAP	47	144	7
STR	47	192	4
SI_	47	192	4	96	48	1
TAP	47	240	4
STR	47	288	7
SCR	47	288	7	96	96	3
STR	48	0	3
SCR	48	0	3	96	144	1
TAP	48	288	7
TAP	48	336	0
TAP	49	0	1
TAP	49	0	6
TAP	49	96	2
TAP	49	96	3
TAP	49	144	0
TAP	49	240	4
TAP	49	240	5
TAP	49	288	7
TAP	50	0	0
TAP	50	48	1
TAP	50	96	2
STR	50	144	3
SI_	50	144	3	96	48	7
TAP	50	240	3
TAP	50	288	5
TAP	50	336	6
TAP	51	0	7
TAP	51	48	6
TAP	51	96	5
STR	51	144	4
SI_	51	144	4	96	48	0
TAP	51	240	4
TAP	51	288	2
TAP	51	336	1
TAP	52	0	0
TAP	52	48	1
TAP	52	96	2
STR	52	144	3
SI_	52	144	3	96	48	7
TAP	52	240	3
TAP	52	288	5
TAP	52	336	6
TAP	53	0	7
TAP	53	48	6
TAP	53	96	5
STR	53	144	4
SI_	53	144	4	96	48	0
TAP	53	240	4
TAP	53	288	3
TAP	53	336	2
STR	54	0	0
SCL	54	0	0	96	48	5
TAP	54	48	1
TAP	54	96	2
STR	54	144	3
SI_	54	144	3	96	48	7
TAP	54	240	3
TAP	54	288	5
TAP	54	336	6
STR	55	0	7
SCR	55	0	7	96	48	2
TAP	55	48	6
TAP	55	96	5
STR	55	144	4
SI_	55	144	4	96	48	0
TAP	55	240	4
TAP	55	288	2
TAP	55	336	1
STR	56	0	0
SCL	56	0	0	96	48	5
TAP	56	48	1
TAP	56	96	2
STR	56	144	3
SI_	56	144	3	96	48	7
TAP	56	240	3
TAP	56	288	5
TAP	56	336	6
STR	57	0	7
SCR	57	0	7	96	48	2
TAP	57	48	6
TAP	57	96	5
STR	57	144	4
SI_	57	144	4	96	48	0
TAP	57	240	4
TAP	57	288	3
TAP	57	336	2
HLD	58	0	0	96
HLD	58	0	1	1056
HLD	58	144	2	96
HLD	58	288	4	96
HLD	59	48	6	96
HLD	59	192	0	96
HLD	59	336	2	96
HLD	60	96	4	96
TAP	60	240	6
TAP	60	288	6
HLD	61	0	6	1056
HLD	61	0	7	96
HLD	61	144	5	96
HLD	61	288	3	96
HLD	62	48	1	96
HLD	62	192	7	96
HLD	62	336	5	96
HLD	63	96	3	96
TAP	63	240	1
TAP	63	288	1
HLD	64	0	1	96
HLD	64	0	2	96
HLD	64	144	3	96
HLD	64	144	4	96
HLD	64	288	5	96
HLD	64	288	6	96
HLD	65	48	3	96
HLD	65	48	4	96
HLD	65	192	1	96
HLD	65	192	2	96
HLD	65	336	3	96
HLD	65	336	4	96
TAP	66	96	5
TAP	66	96	6
TAP	66	144	7
TAP	66	192	0
TAP	66	240	1
TAP	66	288	2
TAP	66	288	3
HLD	67	0	5	96
HLD	67	0	6	96
HLD	67	144	3	96
HLD	67	144	4	96
HLD	67	288	1	96
HLD	67	288	2	96
HLD	68	48	3	96
HLD	68	48	4	96
HLD	68	192	5	96
HLD	68	192	6	96
HLD	68	336	3	96
HLD	68	336	4	96
TAP	69	96	1
TAP	69	96	2
TAP	69	144	0
TAP	69	192	7
TAP	69	240	6
TAP	69	288	4
TAP	69	288	5
STR	70	0	3
SCL	70	0	3	96	48	1
STR	70	0	4
SUL	70	0	4	96	48	0
STR	70	96	3
SUR	70	96	3	96	240	4
STR	70	96	4
SCR	70	96	4	96	240	3
BRK	70	192	3
BRK	70	192	4
TAP	71	96	6
TAP	71	96	7
TAP	71	144	0
STR	71	192	1
SI_	71	192	1	96	48	5
TAP	71	240	1
STR	71	288	7
SI_	71	288	7	96	48	2
TAP	71	336	7
STR	72	0	4
SI_	72	0	4	96	48	0
TAP	72	48	4
STR	72	96	6
SCL	72	96	6	96	192	7
HLD	72	192	2	192
TAP	73	96	3
TAP	73	96	4
STR	73	192	1
SI_	73	192	1	96	48	4
STR	73	192	5
SI_	73	192	5	96	48	0
TAP	73	288	1
TAP	73	288	5
STR	74	0	3
SCL	74	0	3	96	48	0
STR	74	0	7
SCL	74	0	7	96	48	4
TAP	74	96	3
TAP	74	96	7
STR	74	192	4
SCR	74	192	4	96	144	2
STR	74	192	7
SUR	74	192	7	96	144	2
TAP	75	96	3
TAP	75	96	5
STR	75	192	2
SI_	75	192	2	96	48	6
TAP	75	240	2
STR	75	288	0
SI_	75	288	0	96	48	4
TAP	75	336	0
STR	76	0	3
SI_	76	0	3	96	48	7
TAP	76	48	3
STR	76	96	1
SCL	76	96	1	96	96	5
STR	76	192	5
SCL	76	192	5	96	144	6
TAP	77	96	0
TAP	77	96	7
TAP	77	192	1
TAP	77	192	6
TAP	77	288	2
TAP	77	288	5
STR	78	0	3
SUR	78	0	3	96	48	7
STR	78	0	4
SCR	78	0	4	96	48	6
STR	78	96	3
SCL	78	96	3	96	240	4
STR	78	96	4
SUL	78	96	4	96	240	3
TAP	78	192	3
TAP	78	192	4
TAP	79	96	0
TAP	79	96	1
TAP	79	144	7
STR	79	192	6
SI_	79	192	6	96	48	2
TAP	79	240	6
STR	79	288	0
SI_	79	288	0	96	48	5
TAP	79	336	0
STR	80	0	3
SI_	80	0	3	96	48	7
TAP	80	48	3
STR	80	96	1
SCR	80	96	1	96	192	0
HLD	80	192	5	192
TAP	81	96	3
TAP	81	96	4
STR	81	192	2
SI_	81	192	2	96	48	7
STR	81	192	6
SI_	81	192	6	96	48	3
TAP	81	288	2
TAP	81	288	6
STR	82	0	0
SCR	82	0	0	96	48	3
STR	82	0	4
SCR	82	0	4	96	48	7
TAP	82	96	0
TAP	82	96	4
STR	82	192	0
SUL	82	192	0	96	144	5
STR	82	192	3
SCL	82	192	3	96	144	5
TAP	83	96	2
TAP	83	96	4
STR	83	192	5
SI_	83	192	5	96	48	1
TAP	83	240	5
STR	83	288	7
SI_	83	288	7	96	48	3
TAP	83	336	7
STR	84	0	4
SI_	84	0	4	96	48	0
TAP	84	48	4
STR	84	96	6
SCR	84	96	6	96	96	2
STR	84	192	2
SCR	84	192	2	96	144	1
BST	85	96	3
SV_	85	96	3	96	48	0
SV_	85	96	3	96	48	6
TAP	86	0	0
TAP	86	24	1
TAP	86	48	2
TAP	86	72	3
TAP	86	96	4
TAP	86	120	5
TAP	86	144	6
TAP	86	168	7
BST	86	192	0
SI_	86	192	0	96	48	3
STR	86	288	4
SI_	86	288	4	96	48	7
STR	87	0	1
SI_	87	0	1	96	48	6
STR	87	96	5
SI_	87	96	5	96	48	2
STR	87	192	3
SI_	87	192	3	96	48	0
STR	87	288	7
SI_	87	288	7	96	48	4
STR	88	0	2
SI_	88	0	2	96	48	5
STR	88	96	6
SI_	88	96	6	96	48	1
STR	88	192	3
SCR	88	192	3	96	144	2
SUL	88	192	3	96	144	4
TAP	89	96	5
STR	89	192	5
SUR	89	192	5	96	48	2
STR	89	192	6
SCR	89	192	6	96	48	1
STR	90	0	3
SUR	90	0	3	96	48	0
STR	90	0	4
SUL	90	0	4	96	48	7
HLD	90	192	1	192
HLD	90	192	6	192
STR	91	96	7
SUR	91	96	7	96	96	3
STR	91	192	3
SUR	91	192	3	96	96	1
STR	91	288	1
SUR	91	288	1	96	96	5
STR	92	0	5
SUR	92	0	5	96	96	3
STR	92	96	3
SUR	92	96	3	96	96	7
TAP	92	192	7
TAP	93	96	1
TAP	93	96	3
TAP	93	192	2
TAP	93	192	5
TAP	93	288	4
TAP	93	288	6
TAP	94	0	7
TAP	94	24	6
TAP	94	48	5
TAP	94	72	4
TAP	94	96	3
TAP	94	120	2
TAP	94	144	1
TAP	94	168	0
STR	94	192	7
SI_	94	192	7	96	48	4
STR	94	288	3
SI_	94	288	3	96	48	0
STR	95	0	6
SI_	95	0	6	96	48	1
STR	95	96	2
SI_	95	96	2	96	48	5
STR	95	192	4
SI_	95	192	4	96	48	7
STR	95	288	0
SI_	95	288	0	96	48	3
STR	96	0	5
SI_	96	0	5	96	48	2
STR	96	96	1
SI_	96	96	1	96	48	6
STR	96	192	4
SCL	96	192	4	96	144	5
SUR	96	192	4	96	144	3
TAP	97	96	2
STR	97	192	1
SCL	97	192	1	96	48	6
STR	97	192	2
SUL	97	192	2	96	48	5
STR	98	0	3
SUR	98	0	3	96	48	0
STR	98	0	4
SUL	98	0	4	96	48	7
HLD	98	192	1	192
HLD	98	192	6	192
STR	99	96	0
SUL	99	96	0	96	96	4
STR	99	192	4
SUL	99	192	4	96	96	6
STR	99	288	6
SUL	99	288	6	96	96	2
STR	100	0	2
SUL	100	0	2	96	96	4
STR	100	96	4
SUL	100	96	4	96	96	0
TAP	100	192	0
TAP	101	96	0
TAP	101	144	7
TAP	101	192	1
TAP	101	192	6
TAP	101	288	4
TAP	101	288	5
TAP	101	336	3
TAP	101	336	7
TAP	102	48	2
TAP	102	48	3
TAP	102	96	0
TAP	102	96	4
TAP	102	192	3
TAP	102	192	4
TAP	102	240	2
TAP	102	288	3
TAP	102	288	4
TAP	102	336	5
TAP	103	0	3
TAP	103	0	4
TAP	103	48	2
TAP	103	96	3
TAP	103	96	4
TAP	103	144	5
TAP	103	192	2
TAP	103	192	3
TAP	103	240	1
TAP	103	288	4
TAP	103	288	5
TAP	103	336	6
TAP	104	0	2
TAP	104	0	3
TAP	104	48	1
TAP	104	96	4
TAP	104	96	5
TAP	104	144	6
TAP	104	192	2
TAP	104	192	3
TAP	104	240	0
TAP	104	288	4
TAP	104	288	5
TAP	104	336	7
TAP	105	0	2
TAP	105	0	3
TAP	105	48	0
TAP	105	96	4
TAP	105	96	5
TAP	105	144	7
TAP	105	192	2
TAP	105	192	3
TAP	105	240	0
TAP	105	240	7
TAP	105	288	4
TAP	105	288	5
TAP	105	336	0
TAP	105	336	7
HLD	106	0	2	96
HLD	106	0	3	96
BRK	106	192	0
TAP	106	216	7
TAP	106	240	0
TAP	106	264	7
TAP	106	288	0
TAP	106	336	1
TAP	106	336	6
TAP	107	0	3
TAP	107	0	4
TAP	107	48	2
TAP	107	48	5
TAP	107	96	1
TAP	107	96	6
STR	107	144	0
SI_	107	144	0	96	48	2
STR	107	144	7
SI_	107	144	7	96	48	5
STR	107	240	0
SI_	107	240	0	96	48	4
STR	107	240	7
SI_	107	240	7	96	48	3
STR	107	336	0
SCR	107	336	0	96	48	3
STR	107	336	7
SCL	107	336	7	96	48	4
TAP	108	48	0
TAP	108	48	7
STR	108	192	3
SCR	108	192	3	96	48	6
TAP	108	240	2
TAP	108	288	1
STR	108	336	0
SI_	108	336	0	96	48	4
TAP	109	48	0
TAP	109	96	6
TAP	109	144	5
STR	109	192	4
SCL	109	192	4	96	48	1
TAP	109	240	5
TAP	109	288	6
STR	109	336	7
SI_	109	336	7	96	48	3
BRK	110	48	7
BRK	110	96	0
BRK	110	144	1

T_REC_TAP	323
T_REC_BRK	8
T_REC_XTP	0
T_REC_HLD	62
T_REC_XHO	0
T_REC_STR	190
T_REC_BST	2
T_REC_XST	0
T_REC_TTP	0
T_REC_THO	0
T_REC_SLD	201
T_REC_ALL	786
T_NUM_TAP	513
T_NUM_BRK	10
T_NUM_HLD	62
T_NUM_SLD	201
T_NUM_ALL	786
T_JUDGE_TAP	523
T_JUDGE_HLD	180
T_JUDGE_SLD	201
T_JUDGE_ALL	904
TTM_EACHPAIRS	122
TTM_SCR_TAP	256500
TTM_SCR_BRK	26000
TTM_SCR_HLD	62000
TTM_SCR_SLD	301500
TTM_SCR_ALL	646000
TTM_SCR_S	625650
TTM_SCR_SS	645000
TTM_RAT_ACV	10015

