VERSION	0.00.00	1.03.00
FES_MODE	0
BPM_DEF	190.000	190.000	190.000	190.000
MET_DEF	4	4
RESOLUTION	384
CLK_DEF	384
COMPATIBLE_CODE	MA2

BPM	0	0	190.000
MET	0	0	4	4
MET	1	0	4	1
MET	1	96	4	4
MET	57	96	4	3
MET	69	96	4	2
MET	69	288	4	4

TAP	1	288	3
TAP	1	288	4
HLD	2	0	6	96
TAP	2	96	7
TAP	2	192	2
TAP	2	192	3
TAP	2	288	1
TAP	2	288	4
HLD	3	0	1	96
TAP	3	96	0
TAP	3	192	4
TAP	3	192	5
TAP	3	288	3
TAP	3	288	6
HLD	4	0	6	96
TAP	4	96	7
TAP	4	192	2
TAP	4	192	3
TAP	4	288	1
TAP	4	288	4
HLD	5	0	1	96
TAP	5	96	0
TAP	5	192	6
TAP	5	192	7
TAP	5	288	0
TAP	5	288	5
HLD	6	0	0	96
TAP	6	96	1
TAP	6	192	4
TAP	6	192	5
TAP	6	288	3
TAP	6	288	6
HLD	7	0	7	96
TAP	7	96	6
TAP	7	192	2
TAP	7	192	3
TAP	7	288	1
TAP	7	288	4
HLD	8	0	0	96
TAP	8	96	1
TAP	8	192	4
TAP	8	192	5
TAP	8	288	3
TAP	8	288	6
HLD	9	0	7	96
TAP	9	96	6
TAP	9	192	3
TAP	9	192	4
TAP	9	288	2
TAP	9	288	5
HLD	10	0	7	192
HLD	10	192	5	192
TAP	11	0	3
TAP	11	96	2
TAP	11	192	1
TAP	11	288	0
HLD	12	0	5	288
TAP	12	96	4
TAP	12	192	4
TAP	12	288	3
HLD	13	0	2	288
TAP	13	96	3
TAP	13	192	3
TAP	13	288	4
HLD	14	0	0	192
HLD	14	192	2	192
TAP	15	0	4
TAP	15	96	5
TAP	15	192	6
TAP	15	288	7
HLD	16	0	2	288
TAP	16	96	3
TAP	16	192	3
TAP	16	288	4
HLD	17	0	5	288
TAP	17	96	4
TAP	17	192	4
TAP	17	288	3
HLD	18	0	3	192
HLD	18	192	1	192
TAP	19	0	7
TAP	19	96	6
TAP	19	192	5
TAP	19	288	4
HLD	20	0	1	288
TAP	20	96	0
TAP	20	192	0
TAP	20	288	7
HLD	21	0	6	288
TAP	21	96	7
TAP	21	192	7
TAP	21	288	0
HLD	22	0	4	192
HLD	22	192	6	192
TAP	23	0	0
TAP	23	96	1
TAP	23	192	2
TAP	23	288	3
HLD	24	0	6	288
TAP	24	96	7
TAP	24	192	7
STR	24	288	0
SI_	24	288	0	96	96	4
TAP	25	192	3
TAP	25	192	4
TAP	25	288	1
TAP	25	288	6
TAP	26	0	4
HLD	26	0	5	192
TAP	26	96	6
TAP	26	192	4
TAP	26	288	3
TAP	26	288	7
HLD	27	0	2	192
TAP	27	0	3
TAP	27	96	1
TAP	27	192	3
TAP	27	288	0
TAP	27	288	4
TAP	28	0	4
HLD	28	0	5	192
TAP	28	96	6
TAP	28	192	4
STR	28	288	3
SI_	28	288	3	96	96	0
TAP	28	288	7
TAP	29	192	3
TAP	29	192	4
TAP	29	288	2
TAP	29	288	5
TAP	30	0	0
HLD	30	0	1	192
TAP	30	96	2
TAP	30	192	0
TAP	30	288	2
TAP	30	288	7
HLD	31	0	6	192
TAP	31	0	7
TAP	31	96	5
TAP	31	192	7
TAP	31	288	0
TAP	31	288	5
HLD	32	0	3	384
HLD	32	0	4	384
TAP	33	192	0
TAP	33	192	7
STR	33	288	3
SCL	33	288	3	96	192	4
TAP	33	288	4
TAP	34	288	5
TAP	35	0	4
TAP	35	0	6
TAP	35	96	2
TAP	35	192	1
TAP	35	192	3
STR	35	288	7
SCL	35	288	7	96	96	4
SCR	35	288	7	96	96	2
TAP	36	192	2
TAP	36	192	3
TAP	36	288	1
TAP	36	288	4
TAP	37	0	4
TAP	37	0	5
TAP	37	96	3
TAP	37	96	6
TAP	37	192	0
TAP	37	192	7
TAP	37	288	3
STR	37	288	4
SCR	37	288	4	96	192	3
HLD	38	288	2	96
HLD	39	0	0	96
HLD	39	96	7	96
TAP	39	192	5
STR	39	288	3
SCL	39	288	3	96	96	0
STR	39	288	4
SCR	39	288	4	96	96	7
TAP	40	192	4
TAP	40	192	5
TAP	40	288	2
TAP	40	288	6
TAP	41	0	2
TAP	41	0	3
TAP	41	96	1
TAP	41	96	5
TAP	41	192	0
TAP	41	192	7
STR	41	288	3
SCL	41	288	3	96	192	4
TAP	41	288	4
STR	42	288	0
SI_	42	288	0	96	48	5
TAP	42	288	7
TAP	43	96	0
STR	43	96	7
SI_	43	96	7	96	48	2
STR	43	288	0
SCR	43	288	0	96	96	3
STR	43	288	7
SCL	43	288	7	96	96	4
TAP	44	192	0
TAP	44	192	1
TAP	44	288	2
TAP	44	288	7
TAP	45	0	6
TAP	45	0	7
TAP	45	96	0
TAP	45	96	5
TAP	45	192	0
TAP	45	192	7
TAP	45	288	3
STR	45	288	4
SCR	45	288	4	96	192	3
TAP	46	288	3
TAP	46	288	4
TAP	47	0	0
TAP	47	0	1
TAP	47	96	2
TAP	47	96	3
TAP	47	192	4
TAP	47	192	5
STR	47	288	6
SCL	47	288	6	96	192	1
STR	47	288	7
SUL	47	288	7	96	192	0
TAP	48	288	0
TAP	48	288	7
STR	49	0	3
SI_	49	0	3	96	96	0
STR	49	0	4
SI_	49	0	4	96	96	7
BRK	49	288	1
BRK	49	288	6
HLD	50	0	5	96
TAP	50	96	4
TAP	50	192	1
TAP	50	240	1
TAP	50	288	0
HLD	51	0	2	96
TAP	51	96	3
TAP	51	192	6
TAP	51	192	7
TAP	51	288	0
TAP	51	288	4
HLD	52	0	2	96
TAP	52	96	3
TAP	52	192	6
TAP	52	240	6
TAP	52	288	7
HLD	53	0	5	96
TAP	53	96	4
TAP	53	192	0
TAP	53	192	1
TAP	53	288	3
TAP	53	288	7
HLD	54	0	2	96
TAP	54	96	3
TAP	54	192	6
TAP	54	240	6
TAP	54	288	7
HLD	55	0	5	96
TAP	55	96	4
TAP	55	192	0
TAP	55	192	1
TAP	55	288	3
TAP	55	288	7
HLD	56	0	5	96
TAP	56	96	4
TAP	56	192	1
TAP	56	240	1
TAP	56	288	0
HLD	57	0	2	96
TAP	57	96	3
TAP	57	192	0
TAP	57	192	7
TAP	57	288	1
TAP	57	288	6
TAP	58	0	3
TAP	58	96	4
HLD	58	192	5	288
TAP	58	288	4
TAP	59	0	3
HLD	59	96	2	288
TAP	59	192	3
TAP	59	288	4
HLD	60	0	5	288
TAP	60	96	4
TAP	60	192	3
TAP	60	288	2
TAP	61	0	4
TAP	61	96	3
HLD	61	192	2	288
TAP	61	288	3
TAP	62	0	4
HLD	62	96	5	288
TAP	62	192	4
TAP	62	288	3
HLD	63	0	2	288
TAP	63	96	3
TAP	63	192	4
TAP	63	288	5
STR	64	0	6
SI_	64	0	6	96	48	4
TAP	64	0	7
TAP	64	192	0
STR	64	192	1
SI_	64	192	1	96	48	3
STR	65	0	6
SI_	65	0	6	96	48	4
TAP	65	0	7
TAP	65	192	0
STR	65	192	1
SI_	65	192	1	96	48	4
STR	66	0	6
SI_	66	0	6	96	48	3
TAP	66	0	7
TAP	66	192	0
STR	66	192	1
SI_	66	192	1	96	48	4
TAP	67	0	6
STR	67	0	7
SI_	67	0	7	96	48	3
STR	67	192	0
SI_	67	192	0	96	48	4
TAP	67	192	1
TAP	68	0	6
STR	68	0	7
SI_	68	0	7	96	48	3
STR	68	192	0
SI_	68	192	0	96	48	4
TAP	68	192	1
TAP	69	0	0
TAP	69	0	7
TAP	69	96	3
HLD	69	96	4	384
TAP	69	192	5
TAP	69	288	5
TAP	70	0	5
STR	70	96	5
SCR	70	96	5	96	192	4
TAP	71	96	1
TAP	71	96	7
STR	71	192	6
SI_	71	192	6	96	96	3
STR	72	0	2
SI_	72	0	2	96	96	7
HLD	72	192	5	288
TAP	72	288	4
TAP	73	0	7
TAP	73	96	2
TAP	73	192	1
TAP	73	192	4
TAP	73	288	4
TAP	73	288	5
TAP	74	0	3
TAP	74	0	6
STR	74	96	2
SCL	74	96	2	96	192	3
TAP	74	96	3
TAP	75	96	0
TAP	75	96	6
STR	75	192	1
SI_	75	192	1	96	96	4
STR	76	0	5
SI_	76	0	5	96	96	0
HLD	76	192	2	288
TAP	76	288	3
TAP	77	0	0
TAP	77	96	5
TAP	77	192	3
TAP	77	192	6
TAP	77	288	2
TAP	77	288	3
TAP	78	0	1
TAP	78	0	4
TAP	78	96	0
STR	78	96	1
SCR	78	96	1	96	192	0
TAP	79	96	2
TAP	79	96	4
STR	79	192	5
SI_	79	192	5	96	96	0
STR	80	0	1
SI_	80	0	1	96	96	4
HLD	80	192	6	288
TAP	80	288	7
TAP	81	0	4
TAP	81	96	1
TAP	81	192	0
TAP	81	192	5
TAP	81	288	0
TAP	81	288	1
TAP	82	0	2
TAP	82	0	7
STR	82	96	6
SCL	82	96	6	96	192	7
TAP	82	96	7
STR	83	96	0
SI_	83	96	0	96	96	3
STR	83	288	4
SI_	83	288	4	96	96	7
STR	84	96	0
SF_	84	96	0	96	192	4
BST	85	96	4
SI_	85	96	4	96	96	1
BST	85	96	5
SI_	85	96	5	96	96	0
HLD	86	0	3	96
STR	86	96	2
SCL	86	96	2	96	192	3
TAP	87	96	1
TAP	87	192	0
TAP	87	192	2
TAP	87	288	6
TAP	88	0	5
TAP	88	0	7
STR	88	96	2
SCL	88	96	2	96	96	7
STR	88	96	3
SCR	88	96	3	96	96	6
TAP	89	0	0
TAP	89	0	1
TAP	89	96	3
TAP	89	96	6
TAP	89	192	2
TAP	89	192	3
TAP	89	288	0
TAP	89	288	5
HLD	90	0	4	96
STR	90	96	5
SCR	90	96	5	96	192	4
HLD	91	96	5	96
HLD	91	192	7	96
HLD	91	288	0	96
TAP	92	0	2
STR	92	96	4
SCL	92	96	4	96	96	1
STR	92	96	5
SCR	92	96	5	96	96	0
TAP	93	0	6
TAP	93	0	7
TAP	93	96	1
TAP	93	96	4
TAP	93	192	4
TAP	93	192	5
TAP	93	288	2
TAP	93	288	7
HLD	94	0	3	96
STR	94	96	2
SCL	94	96	2	96	192	3
TAP	95	96	1
TAP	95	192	0
TAP	95	192	3
TAP	95	288	6
TAP	96	0	4
TAP	96	0	7
STR	96	96	2
SCL	96	96	2	96	96	7
STR	96	96	3
SCR	96	96	3	96	96	6
TAP	97	0	4
TAP	97	0	5
TAP	97	96	1
TAP	97	96	7
TAP	97	192	0
TAP	97	192	1
TAP	97	288	3
TAP	97	288	6
TAP	98	0	3
TAP	98	0	4
STR	98	96	2
SLL	98	96	2	96	192	4
STR	98	96	5
SLR	98	96	5	96	192	3
STR	99	96	6
SI_	99	96	6	96	96	1
STR	99	288	2
SI_	99	288	2	96	96	5
STR	100	96	7
SF_	100	96	7	96	192	3
TAP	101	96	0
TAP	101	96	5
STR	101	192	2
SI_	101	192	2	96	96	7
STR	101	192	3
SI_	101	192	3	96	96	6
BRK	102	96	0
BRK	102	96	5
TAP	102	192	2
HLD	102	192	4	192
TAP	102	288	3
HLD	103	0	1	192
TAP	103	96	2
HLD	103	192	5	192
TAP	103	288	4
HLD	104	0	0	192
TAP	104	96	1
HLD	104	192	6	192
TAP	104	288	5
HLD	105	0	1	192
TAP	105	96	0
HLD	105	192	7	96
STR	105	288	6
SI_	105	288	6	96	96	2
TAP	106	192	0
TAP	106	288	1
TAP	106	288	3
TAP	107	0	7
TAP	107	96	4
TAP	107	96	6
TAP	107	192	3
TAP	107	288	0
TAP	107	288	2
TAP	108	0	4
TAP	108	96	5
TAP	108	96	7
TAP	108	192	2
TAP	108	288	0
TAP	108	288	3
TAP	109	0	5
TAP	109	96	4
TAP	109	96	7
TAP	109	192	1
TAP	109	192	6
TAP	109	288	3
TAP	109	288	4
TAP	109	336	3
TAP	109	336	4
TAP	110	48	0
TAP	110	48	7
TAP	110	96	1
TAP	110	96	6
BRK	110	144	2
BRK	110	144	5

T_REC_TAP	347
T_REC_BRK	6
T_REC_XTP	0
T_REC_HLD	64
T_REC_XHO	0
T_REC_STR	57
T_REC_BST	2
T_REC_XST	0
T_REC_TTP	0
T_REC_THO	0
T_REC_SLD	60
T_REC_ALL	536
T_NUM_TAP	404
T_NUM_BRK	8
T_NUM_HLD	64
T_NUM_SLD	60
T_NUM_ALL	536
T_JUDGE_TAP	412
T_JUDGE_HLD	248
T_JUDGE_SLD	60
T_JUDGE_ALL	720
TTM_EACHPAIRS	139
TTM_SCR_TAP	202000
TTM_SCR_BRK	20800
TTM_SCR_HLD	64000
TTM_SCR_SLD	90000
TTM_SCR_ALL	376800
TTM_SCR_S	364750
TTM_SCR_SS	376000
TTM_RAT_ACV	10021

