VERSION	0.00.00	1.03.00
FES_MODE	0
BPM_DEF	190.000	190.000	190.000	190.000
MET_DEF	4	4
RESOLUTION	384
CLK_DEF	384
COMPATIBLE_CODE	MA2

BPM	0	0	190.000
MET	0	0	4	4

TAP	2	0	2
TAP	2	96	2
TAP	2	192	1
TAP	2	288	1
TAP	3	0	0
TAP	3	96	0
TAP	3	192	0
TAP	3	192	7
TAP	4	0	5
TAP	4	96	5
TAP	4	192	6
TAP	4	288	6
TAP	5	0	7
TAP	5	96	7
TAP	5	192	0
TAP	5	192	7
TAP	6	0	1
TAP	6	96	1
TAP	6	192	2
TAP	6	288	2
TAP	7	0	3
TAP	7	96	3
TAP	7	192	3
TAP	7	192	4
TAP	8	0	6
TAP	8	96	6
TAP	8	192	5
TAP	8	288	5
TAP	9	0	4
TAP	9	96	4
TAP	9	192	3
TAP	9	192	4
TAP	10	0	2
TAP	10	96	2
TAP	10	192	2
TAP	10	192	3
TAP	11	0	5
TAP	11	96	5
TAP	11	192	4
TAP	11	192	5
TAP	12	0	3
TAP	12	96	3
TAP	12	192	3
TAP	12	192	4
TAP	13	0	3
TAP	13	0	4
TAP	13	96	2
TAP	13	96	5
TAP	13	192	1
TAP	13	192	6
TAP	14	0	6
TAP	14	96	6
TAP	14	192	6
TAP	14	192	7
TAP	15	0	1
TAP	15	96	1
TAP	15	192	0
TAP	15	192	1
TAP	16	0	7
TAP	16	96	7
TAP	16	192	0
TAP	16	192	7
HLD	17	0	0	96
HLD	17	0	7	96
TAP	17	192	1
TAP	17	192	6
HLD	18	0	1	192
TAP	18	96	0
TAP	18	192	0
HLD	19	0	6	192
TAP	19	96	7
TAP	19	192	7
HLD	20	0	0	192
TAP	20	96	7
TAP	20	192	7
TAP	21	0	0
TAP	21	0	7
TAP	21	96	1
TAP	21	96	6
TAP	21	192	2
TAP	21	192	5
HLD	22	0	5	192
TAP	22	96	4
TAP	22	192	4
HLD	23	0	2	192
TAP	23	96	3
TAP	23	192	3
HLD	24	0	4	192
TAP	24	96	3
TAP	24	192	3
TAP	25	0	2
TAP	25	96	2
TAP	25	96	3
TAP	25	192	5
TAP	25	288	4
TAP	25	288	5
STR	26	0	5
SI_	26	0	5	96	144	0
STR	27	0	4
SI_	27	0	4	96	144	1
STR	28	0	4
SUR	28	0	4	96	336	3
STR	28	0	5
SCR	28	0	5	96	336	2
TAP	29	192	1
TAP	29	192	4
STR	30	0	2
SI_	30	0	2	96	144	7
STR	31	0	3
SI_	31	0	3	96	144	6
STR	32	0	2
SI_	32	0	2	96	144	7
STR	32	0	3
SI_	32	0	3	96	144	6
TAP	33	0	0
TAP	33	0	7
TAP	33	192	1
TAP	33	192	6
BRK	34	0	5
TAP	34	96	4
TAP	34	192	2
TAP	34	192	3
TAP	35	0	1
TAP	35	96	2
TAP	35	192	3
TAP	35	288	3
STR	35	288	4
SCR	35	288	4	96	264	1
HLD	37	0	2	96
HLD	37	0	3	96
TAP	37	192	1
TAP	37	192	4
TAP	38	0	2
TAP	38	96	3
TAP	38	192	4
TAP	38	192	5
TAP	39	0	6
TAP	39	96	5
TAP	39	192	4
STR	39	288	3
SCL	39	288	3	96	264	6
TAP	39	288	4
TAP	41	0	4
TAP	41	0	5
TAP	41	96	4
TAP	41	96	5
TAP	41	192	3
TAP	41	192	6
BRK	42	0	6
TAP	42	96	7
TAP	42	192	0
TAP	42	192	1
TAP	43	0	2
TAP	43	96	1
TAP	43	192	0
TAP	43	288	0
STR	43	288	7
SCL	43	288	7	96	264	2
HLD	45	0	0	96
HLD	45	0	1	96
TAP	45	192	2
TAP	45	192	7
TAP	46	0	1
TAP	46	96	0
TAP	46	192	6
TAP	46	192	7
TAP	47	0	5
TAP	47	96	6
TAP	47	192	7
STR	47	288	0
SCR	47	288	0	96	264	5
TAP	47	288	7
TAP	49	0	0
TAP	49	0	7
TAP	49	96	1
TAP	49	96	6
TAP	49	192	2
TAP	49	192	5
TAP	50	0	5
TAP	50	96	5
TAP	50	192	6
TAP	50	288	6
TAP	51	0	7
TAP	51	96	7
TAP	51	192	0
TAP	51	192	7
TAP	52	0	2
TAP	52	96	2
TAP	52	192	1
TAP	52	288	1
TAP	53	0	0
TAP	53	96	0
TAP	53	192	0
TAP	53	192	7
TAP	54	0	6
TAP	54	96	6
TAP	54	192	5
TAP	54	288	5
TAP	55	0	4
TAP	55	96	4
TAP	55	192	3
TAP	55	192	4
TAP	56	0	1
TAP	56	96	1
TAP	56	192	2
TAP	56	288	2
TAP	57	0	3
TAP	57	96	3
TAP	57	192	3
TAP	57	192	4
STR	58	0	5
SCR	58	0	5	96	288	0
STR	59	192	1
SCR	59	192	1	96	288	4
STR	61	0	4
SCL	61	0	4	96	288	1
STR	62	192	0
SCL	62	192	0	96	288	5
HLD	64	0	5	192
TAP	64	96	4
TAP	64	192	4
TAP	65	0	3
TAP	65	0	4
HLD	65	192	2	192
TAP	65	288	3
TAP	66	0	3
TAP	66	192	1
TAP	66	192	2
HLD	67	0	1	192
TAP	67	96	0
TAP	67	192	0
TAP	68	0	0
TAP	68	0	7
HLD	68	192	6	192
TAP	68	288	7
TAP	69	0	7
TAP	69	192	5
TAP	69	192	6
TAP	70	0	3
TAP	70	0	4
BRK	70	192	2
TAP	70	288	3
TAP	71	0	4
TAP	71	0	5
TAP	71	192	6
TAP	71	288	5
TAP	72	0	4
STR	72	96	3
SCL	72	96	3	96	264	6
TAP	72	96	4
HLD	73	192	4	96
HLD	73	192	5	96
TAP	74	0	3
TAP	74	0	6
TAP	74	192	5
TAP	74	288	4
TAP	75	0	2
TAP	75	0	3
TAP	75	192	1
TAP	75	288	2
TAP	76	0	3
TAP	76	96	3
STR	76	96	4
SCR	76	96	4	96	264	1
TAP	77	192	2
TAP	77	192	3
TAP	77	288	2
TAP	77	288	3
TAP	78	0	1
TAP	78	0	4
BRK	78	192	1
TAP	78	288	0
TAP	79	0	6
TAP	79	0	7
TAP	79	192	5
TAP	79	288	6
TAP	80	0	7
STR	80	96	0
SCR	80	96	0	96	264	5
TAP	80	96	7
HLD	81	192	6	96
HLD	81	192	7	96
TAP	82	0	0
TAP	82	0	5
TAP	82	192	6
TAP	82	288	7
TAP	83	0	0
TAP	83	0	1
TAP	83	192	2
TAP	83	288	1
TAP	84	0	0
TAP	84	96	0
STR	84	96	7
SCL	84	96	7	96	264	2
TAP	85	192	0
TAP	85	192	7
TAP	86	0	1
TAP	86	0	6
BRK	86	192	2
TAP	86	288	3
TAP	87	0	4
TAP	87	0	5
TAP	87	192	5
TAP	87	288	4
TAP	88	0	3
STR	88	96	2
SCL	88	96	2	96	264	5
TAP	88	96	3
HLD	89	192	3	96
HLD	89	192	4	96
TAP	90	0	2
TAP	90	0	5
TAP	90	192	5
TAP	90	288	4
TAP	91	0	2
TAP	91	0	3
TAP	91	192	2
TAP	91	288	3
TAP	92	0	4
TAP	92	96	4
STR	92	96	5
SCR	92	96	5	96	264	2
TAP	93	192	3
TAP	93	192	4
TAP	93	288	3
TAP	93	288	4
TAP	94	0	2
TAP	94	0	5
BRK	94	192	6
TAP	94	288	7
TAP	95	0	0
TAP	95	0	1
TAP	95	192	1
TAP	95	288	0
TAP	96	0	7
STR	96	96	6
SCL	96	96	6	96	264	1
TAP	96	96	7
HLD	97	192	0	96
HLD	97	192	7	96
TAP	98	0	1
TAP	98	0	6
TAP	98	192	1
TAP	98	288	0
TAP	99	0	6
TAP	99	0	7
TAP	99	192	6
TAP	99	288	7
TAP	100	0	0
TAP	100	96	0
STR	100	96	1
SCR	100	96	1	96	264	6
TAP	101	192	0
TAP	101	192	7
TAP	101	288	1
TAP	101	288	6
TAP	102	0	2
TAP	102	0	5
TAP	102	192	3
TAP	102	288	3
TAP	103	0	2
TAP	103	96	2
TAP	103	192	1
TAP	103	288	0
TAP	103	288	1
TAP	104	0	6
TAP	104	0	7
TAP	104	192	4
TAP	104	288	4
TAP	105	0	5
TAP	105	96	5
TAP	105	192	6
TAP	105	288	6
TAP	105	288	7
TAP	106	0	0
TAP	106	0	1
TAP	106	192	7
TAP	106	288	7
TAP	107	0	6
TAP	107	96	6
TAP	107	192	5
TAP	107	288	4
TAP	107	288	5
TAP	108	0	2
TAP	108	0	3
TAP	108	192	0
TAP	108	288	0
TAP	109	0	1
TAP	109	96	1
TAP	109	192	2
TAP	109	288	2
TAP	109	288	3
TAP	110	0	4
TAP	110	0	5
TAP	110	96	3
TAP	110	96	4
TAP	110	144	3
TAP	110	144	4

T_REC_TAP	320
T_REC_BRK	6
T_REC_XTP	0
T_REC_HLD	24
T_REC_XHO	0
T_REC_STR	24
T_REC_BST	0
T_REC_XST	0
T_REC_TTP	0
T_REC_THO	0
T_REC_SLD	24
T_REC_ALL	398
T_NUM_TAP	344
T_NUM_BRK	6
T_NUM_HLD	24
T_NUM_SLD	24
T_NUM_ALL	398
T_JUDGE_TAP	350
T_JUDGE_HLD	68
T_JUDGE_SLD	24
T_JUDGE_ALL	442
TTM_EACHPAIRS	97
TTM_SCR_TAP	172000
TTM_SCR_BRK	15600
TTM_SCR_HLD	24000
TTM_SCR_SLD	36000
TTM_SCR_ALL	247600
TTM_SCR_S	239600
TTM_SCR_SS	247000
TTM_RAT_ACV	10024

