VERSION	0.00.00	1.03.00
FES_MODE	0
BPM_DEF	190.000	190.000	190.000	190.000
MET_DEF	4	4
RESOLUTION	384
CLK_DEF	384
COMPATIBLE_CODE	MA2

BPM	0	0	190.000
MET	0	0	4	5
MET	1	96	4	4
MET	69	96	4	2
MET	69	288	4	4

TAP	2	0	4
TAP	3	0	4
TAP	4	0	5
TAP	5	0	5
TAP	6	0	6
TAP	7	0	6
HLD	8	0	7	384
TAP	10	0	0
TAP	10	192	0
TAP	11	0	0
TAP	12	0	1
TAP	12	192	1
TAP	13	0	1
TAP	14	0	2
TAP	14	192	2
TAP	15	0	2
TAP	16	0	3
TAP	16	192	3
TAP	17	0	3
TAP	17	0	4
TAP	18	0	4
TAP	18	192	4
TAP	19	0	4
TAP	20	0	5
TAP	20	192	5
TAP	21	0	5
TAP	22	0	6
TAP	22	192	6
TAP	23	0	6
TAP	24	0	7
TAP	24	192	7
TAP	25	0	0
TAP	25	0	7
TAP	26	0	7
TAP	26	192	7
TAP	27	0	6
TAP	27	192	6
TAP	28	0	5
TAP	28	192	5
TAP	29	0	3
TAP	29	0	4
TAP	30	0	3
TAP	30	192	3
TAP	31	0	2
TAP	31	192	2
TAP	32	0	1
TAP	32	192	1
BRK	33	0	0
BRK	33	0	7
TAP	34	0	0
TAP	34	96	0
TAP	34	192	0
TAP	35	0	0
TAP	35	96	0
TAP	35	192	0
TAP	36	0	1
TAP	36	96	1
TAP	36	192	1
TAP	37	0	1
TAP	37	96	1
TAP	37	192	1
TAP	38	0	2
TAP	38	96	2
TAP	38	192	2
TAP	39	0	2
TAP	39	96	2
TAP	39	192	2
TAP	40	0	3
TAP	40	96	3
TAP	40	192	3
TAP	41	0	3
TAP	41	0	4
TAP	42	0	4
TAP	42	96	4
TAP	42	192	4
TAP	43	0	4
TAP	43	96	4
TAP	43	192	4
TAP	44	0	5
TAP	44	96	5
TAP	44	192	5
TAP	45	0	5
TAP	45	96	5
TAP	45	192	5
TAP	46	0	6
TAP	46	96	6
TAP	46	192	6
TAP	47	0	6
TAP	47	96	6
TAP	47	192	6
TAP	48	0	7
TAP	48	96	7
TAP	48	192	7
TAP	49	0	0
TAP	49	0	7
TAP	50	0	7
TAP	50	192	7
TAP	51	0	6
TAP	51	192	6
TAP	52	0	5
TAP	52	192	5
TAP	53	0	4
TAP	53	192	4
TAP	54	0	3
TAP	54	192	3
TAP	55	0	2
TAP	55	192	2
TAP	56	0	1
TAP	56	192	1
TAP	57	0	0
TAP	57	192	0
TAP	58	0	7
STR	58	192	7
SI_	58	192	7	96	288	4
TAP	60	192	0
TAP	61	0	0
STR	61	192	0
SI_	61	192	0	96	288	3
TAP	63	192	6
TAP	64	0	6
STR	64	192	6
SI_	64	192	6	96	288	3
TAP	66	192	1
TAP	67	0	1
STR	67	192	1
SI_	67	192	1	96	288	4
TAP	69	192	7
TAP	70	0	0
TAP	70	0	7
TAP	70	192	0
TAP	70	288	0
TAP	71	0	0
TAP	71	192	1
TAP	71	288	1
TAP	72	0	1
TAP	72	192	2
TAP	72	192	3
TAP	73	0	2
TAP	73	0	3
HLD	73	192	3	192
HLD	73	192	4	192
TAP	74	192	4
TAP	74	288	4
TAP	75	0	4
TAP	75	192	5
TAP	75	288	5
TAP	76	0	5
TAP	76	192	6
TAP	76	192	7
TAP	77	0	6
TAP	77	0	7
HLD	77	192	0	192
HLD	77	192	7	192
TAP	78	192	7
TAP	78	288	7
TAP	79	0	7
TAP	79	192	6
TAP	79	288	6
TAP	80	0	6
TAP	80	192	4
TAP	80	192	5
TAP	81	0	4
TAP	81	0	5
HLD	81	192	3	192
HLD	81	192	4	192
TAP	82	192	3
TAP	82	288	3
TAP	83	0	3
TAP	83	192	2
TAP	83	288	2
TAP	84	0	2
TAP	84	192	0
TAP	84	192	1
TAP	85	0	0
TAP	85	0	1
TAP	85	192	0
TAP	85	192	7
BRK	86	0	0
BRK	86	0	7
TAP	86	192	0
TAP	86	288	0
TAP	87	0	1
TAP	87	96	1
TAP	87	192	2
TAP	87	288	2
TAP	88	0	3
TAP	88	192	3
TAP	88	192	4
TAP	89	0	3
TAP	89	0	4
TAP	89	192	2
TAP	89	192	5
TAP	90	0	2
TAP	90	0	5
TAP	90	192	4
TAP	90	288	4
TAP	91	0	5
TAP	91	96	5
TAP	91	192	6
TAP	91	288	6
TAP	92	0	7
TAP	92	192	0
TAP	92	192	7
TAP	93	0	0
TAP	93	0	7
TAP	93	192	1
TAP	93	192	6
TAP	94	0	1
TAP	94	0	6
TAP	94	192	7
TAP	94	288	7
TAP	95	0	6
TAP	95	96	6
TAP	95	192	5
TAP	95	288	5
TAP	96	0	4
TAP	96	192	3
TAP	96	192	4
TAP	97	0	3
TAP	97	0	4
TAP	97	192	2
TAP	97	192	5
TAP	98	0	2
TAP	98	0	5
TAP	98	192	3
TAP	98	288	3
TAP	99	0	2
TAP	99	96	2
TAP	99	192	1
TAP	99	288	1
TAP	100	0	0
TAP	100	192	0
TAP	100	192	7
TAP	101	0	0
TAP	101	0	7
TAP	101	192	1
TAP	101	192	6
TAP	102	0	1
TAP	102	0	6
STR	102	192	0
SI_	102	192	0	96	288	3
STR	104	192	7
SI_	104	192	7	96	288	4
TAP	106	192	0
TAP	107	0	0
TAP	107	192	1
TAP	108	0	1
TAP	108	192	2
TAP	109	0	2
STR	109	192	3
SI_	109	192	3	96	288	7

T_REC_TAP	226
T_REC_BRK	4
T_REC_XTP	0
T_REC_HLD	7
T_REC_XHO	0
T_REC_STR	7
T_REC_BST	0
T_REC_XST	0
T_REC_TTP	0
T_REC_THO	0
T_REC_SLD	7
T_REC_ALL	251
T_NUM_TAP	233
T_NUM_BRK	4
T_NUM_HLD	7
T_NUM_SLD	7
T_NUM_ALL	251
T_JUDGE_TAP	237
T_JUDGE_HLD	32
T_JUDGE_SLD	7
T_JUDGE_ALL	276
TTM_EACHPAIRS	36
TTM_SCR_TAP	116500
TTM_SCR_BRK	10400
TTM_SCR_HLD	7000
TTM_SCR_SLD	10500
TTM_SCR_ALL	144400
TTM_SCR_S	139700
TTM_SCR_SS	144000
TTM_RAT_ACV	10027

