VERSION	0.00.00	1.03.00
FES_MODE	0
BPM_DEF	 79.000	195.000	195.000	 46.000
MET_DEF	4	4
RESOLUTION	384
CLK_DEF	384
COMPATIBLE_CODE	MA2

BPM	0	0	 79.000
BPM	1	0	 61.000
BPM	1	96	 79.000
BPM	1	192	 82.000
BPM	1	288	 83.000
BPM	2	0	 73.000
BPM	2	96	 66.000
BPM	2	192	 46.000
BPM	2	288	 48.000
BPM	3	0	 71.000
BPM	3	96	 67.000
BPM	3	192	 59.000
BPM	3	288	 52.500
BPM	4	0	 47.000
BPM	4	192	 72.800
BPM	5	192	195.000
MET	0	0	4	4

STR	1	0	0
SI_	1	0	0	30	114	3
HLD	1	0	5	144
HLD	1	192	2	144
STR	1	192	7
SI_	1	192	7	40	104	4
STR	2	0	1
SUR	2	0	1	36	156	4
HLD	2	0	5	192
TAP	2	232	2
TAP	2	232	3
TAP	2	256	3
TAP	2	256	4
STR	2	288	4
SUL	2	288	4	24	72	3
HLD	2	288	5	144
STR	3	48	0
SI_	3	48	0	36	76	3
TAP	3	96	6
TAP	3	160	5
TAP	3	192	5
TAP	3	256	4
TAP	3	288	4
TAP	3	352	3
STR	4	0	3
SSR	4	0	3	24	120	7
STR	4	192	1
SXL	4	192	1	36	276	4
STR	4	192	5
SXL	4	192	5	36	276	0
TAP	5	192	3
TAP	5	216	4
TAP	5	240	3
TAP	5	288	1
TAP	5	288	6
TAP	6	0	0
TAP	6	48	0
TAP	6	96	4
TAP	6	144	1
TAP	6	192	1
TAP	6	240	5
TAP	6	288	2
TAP	6	336	2
TAP	7	0	6
TAP	7	48	5
TAP	7	96	4
TAP	7	144	3
TAP	7	192	0
TAP	7	192	2
TAP	7	288	3
TAP	7	336	4
TAP	8	0	7
TAP	8	48	6
STR	8	96	7
SI_	8	96	7	96	48	3
TAP	8	144	0
TAP	8	192	7
TAP	8	288	7
TAP	8	336	6
STR	9	0	7
SI_	9	0	7	96	48	3
TAP	9	48	0
TAP	9	96	7
TAP	9	192	0
TAP	9	240	7
TAP	9	288	1
TAP	9	288	6
TAP	10	0	2
TAP	10	48	4
TAP	10	72	3
TAP	10	96	4
TAP	10	144	2
TAP	10	192	5
TAP	10	240	3
TAP	10	264	4
TAP	10	288	3
TAP	10	336	5
TAP	11	0	1
TAP	11	48	4
TAP	11	72	3
TAP	11	96	4
TAP	11	144	2
TAP	11	192	6
TAP	11	240	3
TAP	11	264	4
TAP	11	288	3
TAP	11	336	5
TAP	12	0	2
TAP	12	24	3
TAP	12	48	2
TAP	12	72	3
TAP	12	96	2
TAP	12	144	5
TAP	12	168	4
TAP	12	192	5
TAP	12	216	4
TAP	12	240	5
TAP	12	288	3
TAP	12	312	4
TAP	12	336	3
TAP	12	360	4
TAP	13	0	1
STR	13	48	0
SCL	13	48	0	96	48	5
SCR	13	48	0	96	48	3
STR	13	144	0
SF_	13	144	0	96	48	4
TAP	13	240	0
BRK	14	0	1
TAP	14	48	5
TAP	14	96	0
TAP	14	144	6
TAP	14	192	1
TAP	14	240	7
TAP	14	264	6
TAP	14	288	5
TAP	14	336	0
TAP	15	0	4
TAP	15	48	3
TAP	15	96	2
TAP	15	144	1
STR	15	192	0
SXL	15	192	0	96	48	2
TAP	15	288	5
TAP	15	336	6
TAP	16	0	7
TAP	16	48	0
STR	16	96	7
SI_	16	96	7	96	48	3
TAP	16	144	6
TAP	16	192	7
TAP	16	288	7
TAP	16	336	0
STR	17	0	7
SI_	17	0	7	96	48	3
TAP	17	48	6
TAP	17	96	7
TAP	17	192	4
TAP	17	240	3
TAP	17	288	1
TAP	17	288	6
TAP	18	0	6
TAP	18	48	2
TAP	18	96	7
TAP	18	144	1
TAP	18	192	6
TAP	18	240	0
TAP	18	264	1
TAP	18	288	2
TAP	18	336	7
TAP	19	0	3
TAP	19	48	4
TAP	19	96	5
TAP	19	144	6
STR	19	192	7
SI_	19	192	7	96	48	3
TAP	19	240	0
TAP	19	288	7
TAP	20	0	0
TAP	20	48	7
STR	20	96	0
SI_	20	96	0	96	48	4
TAP	20	144	1
TAP	20	192	0
TAP	20	288	0
TAP	20	336	7
STR	21	0	0
SI_	21	0	0	96	48	4
TAP	21	48	1
TAP	21	96	0
TAP	21	192	2
TAP	21	240	3
TAP	21	288	4
TAP	21	336	5
HLD	22	0	3	96
TAP	22	0	6
TAP	22	96	6
HLD	22	192	2	96
TAP	22	192	5
TAP	22	288	5
STR	23	0	1
SCL	23	0	1	96	192	5
TAP	23	0	4
TAP	23	96	4
TAP	23	192	3
TAP	23	288	3
TAP	24	0	1
HLD	24	0	4	96
TAP	24	96	1
TAP	24	192	2
HLD	24	192	5	96
TAP	24	288	2
TAP	25	0	3
STR	25	0	6
SV_	25	0	6	96	96	3
STR	25	96	3
SCR	25	96	3	96	96	6
TAP	25	192	7
TAP	25	288	0
TAP	26	0	1
HLD	26	0	4	96
TAP	26	96	1
TAP	26	192	2
HLD	26	192	5	96
TAP	26	288	2
TAP	27	0	3
STR	27	0	6
SCR	27	0	6	96	192	2
TAP	27	96	3
TAP	27	192	4
TAP	27	288	4
HLD	28	0	3	96
TAP	28	0	6
TAP	28	96	4
TAP	28	144	2
TAP	28	192	1
HLD	28	192	4	96
TAP	28	288	3
TAP	28	336	5
TAP	29	0	3
TAP	29	0	6
TAP	29	48	5
TAP	29	96	4
TAP	29	144	2
TAP	29	144	3
TAP	29	240	0
TAP	29	240	5
TAP	29	288	0
TAP	29	288	5
BST	30	0	0
SI_	30	0	0	96	48	2
TAP	30	48	4
TAP	30	96	0
TAP	30	144	4
STR	30	192	0
SI_	30	192	0	96	48	3
TAP	30	240	5
TAP	30	288	0
TAP	30	336	5
STR	31	0	0
SI_	31	0	0	96	48	4
TAP	31	48	6
TAP	31	96	0
TAP	31	144	6
STR	31	192	0
SI_	31	192	0	96	48	3
TAP	31	240	7
TAP	31	288	0
TAP	31	336	7
TAP	32	0	0
TAP	32	48	6
TAP	32	96	3
STR	32	144	3
SCL	32	144	3	96	96	7
TAP	32	144	4
STR	32	240	7
SCL	32	240	7	96	144	1
HLD	32	336	3	144
TAP	33	192	5
TAP	33	240	5
TAP	33	288	3
TAP	33	312	4
TAP	33	336	3
STR	34	0	7
SI_	34	0	7	96	48	5
TAP	34	48	3
TAP	34	96	7
TAP	34	144	3
STR	34	192	7
SI_	34	192	7	96	48	4
TAP	34	240	2
TAP	34	288	7
TAP	34	336	2
STR	35	0	7
SI_	35	0	7	96	48	3
TAP	35	48	1
TAP	35	96	7
TAP	35	144	1
STR	35	192	7
SI_	35	192	7	96	48	4
TAP	35	240	0
TAP	35	288	7
TAP	35	336	0
STR	36	0	1
SCR	36	0	1	96	48	4
TAP	36	96	5
TAP	36	144	6
STR	36	192	7
SCR	36	192	7	96	48	2
TAP	36	288	2
TAP	36	336	3
STR	37	0	4
SCR	37	0	4	96	96	0
STR	37	96	0
SCR	37	96	0	96	144	7
TAP	38	0	4
TAP	38	48	3
TAP	38	96	2
STR	38	144	1
SLR	38	144	1	96	96	7
TAP	38	240	6
TAP	38	288	6
TAP	39	0	5
TAP	39	48	4
TAP	39	96	3
STR	39	144	2
SLR	39	144	2	96	96	0
TAP	39	240	7
TAP	39	288	7
TAP	40	0	6
TAP	40	48	5
TAP	40	96	4
STR	40	144	3
SLR	40	144	3	96	96	1
TAP	40	240	0
STR	40	288	0
SSL	40	288	0	96	144	4
TAP	41	192	3
TAP	41	192	4
TAP	41	240	3
TAP	41	240	4
TAP	41	288	2
TAP	41	312	5
TAP	41	336	2
TAP	42	0	0
TAP	42	0	4
STR	42	48	0
SCR	42	48	0	96	48	3
STR	42	48	4
SCR	42	48	4	96	48	7
TAP	42	96	0
TAP	42	96	4
TAP	42	144	0
TAP	42	144	4
TAP	42	288	2
TAP	42	288	6
STR	42	336	2
SCL	42	336	2	96	48	7
STR	42	336	6
SCL	42	336	6	96	48	3
TAP	43	0	2
TAP	43	0	6
TAP	43	48	2
TAP	43	48	6
TAP	43	192	0
TAP	43	192	4
TAP	43	240	1
TAP	43	240	5
TAP	43	288	2
TAP	43	288	6
TAP	43	336	3
TAP	43	336	7
STR	44	0	0
SUL	44	0	0	96	144	2
STR	44	0	4
SUL	44	0	4	96	144	6
TAP	44	336	0
TAP	44	336	4
TAP	45	48	2
TAP	45	48	6
TAP	45	144	2
TAP	45	144	5
STR	45	192	0
SI_	45	192	0	96	48	3
STR	45	192	4
SI_	45	192	4	96	48	7
BRK	45	288	0
BRK	45	288	4
STR	46	0	2
SI_	46	0	2	96	48	7
TAP	46	0	7
TAP	46	96	2
STR	46	96	4
SI_	46	96	4	96	48	1
STR	46	192	0
SI_	46	192	0	96	48	5
TAP	46	192	4
TAP	46	288	0
STR	46	288	7
SCL	46	288	7	96	96	0
HLD	47	0	3	96
TAP	47	0	7
STR	47	192	1
SI_	47	192	1	96	48	4
STR	47	192	7
SI_	47	192	7	96	48	4
TAP	47	288	1
TAP	47	288	7
STR	48	0	6
SXR	48	0	6	96	48	4
STR	48	96	2
SXR	48	96	2	96	48	0
TAP	48	192	7
TAP	48	288	2
TAP	48	288	5
STR	49	0	4
SXL	49	0	4	96	144	7
TAP	49	96	3
TAP	49	144	2
TAP	49	192	1
TAP	49	288	1
TAP	49	312	0
TAP	49	336	1
TAP	49	360	0
BRK	50	0	2
TAP	50	48	2
TAP	50	96	0
TAP	50	96	2
TAP	50	144	2
TAP	50	192	5
TAP	50	240	5
TAP	50	288	5
TAP	50	288	7
STR	50	336	5
SXL	50	336	5	96	144	0
TAP	51	48	0
STR	51	96	0
SXL	51	96	0	96	144	5
TAP	52	0	2
TAP	52	48	2
TAP	52	96	4
TAP	52	120	3
TAP	52	144	4
TAP	52	192	0
STR	52	240	0
SI_	52	240	0	96	48	4
BRK	52	336	0
BRK	52	336	4
TAP	53	48	5
TAP	53	96	6
TAP	53	144	7
STR	53	192	0
SI_	53	192	0	96	48	5
STR	53	192	7
SI_	53	192	7	96	48	2
TAP	54	0	0
STR	54	0	5
SI_	54	0	5	96	48	0
STR	54	96	3
SI_	54	96	3	96	48	6
TAP	54	96	5
TAP	54	192	3
STR	54	192	7
SI_	54	192	7	96	48	2
STR	54	288	0
SCR	54	288	0	96	96	7
TAP	54	288	7
TAP	55	0	0
HLD	55	0	4	96
STR	55	192	3
SV_	55	192	3	96	48	1
STR	55	192	7
SV_	55	192	7	96	48	5
TAP	55	288	3
TAP	55	288	7
STR	56	0	2
SV_	56	0	2	96	48	7
STR	56	0	4
SV_	56	0	4	96	48	7
TAP	56	96	2
TAP	56	96	4
STR	56	192	0
SLL	56	192	0	96	48	4
SLR	56	192	0	96	48	4
TAP	56	288	0
STR	57	0	7
SXR	57	0	7	96	144	4
TAP	57	96	3
TAP	57	144	2
TAP	57	192	1
TAP	57	336	6
STR	57	336	7
SI_	57	336	7	96	48	3
HLD	58	0	6	96
TAP	58	0	7
STR	58	144	2
SI_	58	144	2	96	48	0
TAP	58	144	5
TAP	58	192	2
HLD	58	192	5	96
TAP	58	336	4
STR	58	336	7
SI_	58	336	7	96	48	3
HLD	59	0	4	96
TAP	59	0	7
STR	59	144	2
SCL	59	144	2	96	96	5
TAP	59	144	5
TAP	59	192	2
TAP	59	192	5
BRK	60	0	0
TAP	60	144	1
TAP	60	144	7
TAP	60	192	1
TAP	60	192	7
TAP	60	288	3
TAP	60	336	4
TAP	61	0	7
TAP	61	144	5
TAP	61	168	4
TAP	61	192	5
TAP	61	240	3
TAP	61	288	4
TAP	61	336	2
TAP	62	0	0
TAP	62	96	2
TAP	62	96	3
TAP	62	144	2
TAP	62	144	3
TAP	62	240	3
TAP	62	240	4
TAP	62	336	4
TAP	62	336	5
TAP	63	48	5
TAP	63	96	4
TAP	63	144	3
TAP	63	192	2
TAP	64	0	5
TAP	64	32	4
TAP	64	64	5
TAP	64	96	2
TAP	64	128	3
TAP	64	160	2
TAP	64	192	5
TAP	64	224	4
TAP	64	256	6
TAP	64	288	2
TAP	64	320	3
TAP	64	352	1
TAP	65	0	5
TAP	65	32	4
TAP	65	64	7
TAP	65	96	2
TAP	65	128	3
TAP	65	160	0
TAP	65	192	7
TAP	65	208	6
TAP	65	224	5
TAP	65	240	4
TAP	65	256	3
TAP	65	272	2
TAP	65	288	1
TAP	65	304	0
TAP	65	320	7
TAP	65	336	6
TAP	65	352	5
TAP	65	368	4
BRK	66	0	3
TAP	66	96	3
TAP	66	96	4
TAP	66	144	3
TAP	66	144	4
TAP	66	192	5
TAP	66	216	4
TAP	66	240	5
TAP	66	264	4
TAP	66	288	5
STR	66	336	0
SCL	66	336	0	96	48	5
SCR	66	336	0	96	48	3
TAP	67	48	0
TAP	67	144	0
TAP	67	144	4
BRK	67	192	0
BRK	67	192	4
HLD	68	0	3	384
TAP	68	96	4
TAP	68	192	5
TAP	68	288	6
STR	69	0	7
SI_	69	0	7	96	288	3
TAP	69	192	1
TAP	69	288	0
TAP	70	0	7
TAP	70	96	0
TAP	70	96	6
STR	70	192	1
SI_	70	192	1	96	48	6
STR	70	192	5
SI_	70	192	5	96	48	2
BRK	70	288	1
BRK	70	288	5
TAP	71	0	3
TAP	71	0	7
TAP	71	48	0
TAP	71	48	4
TAP	71	96	1
TAP	71	96	5
TAP	71	144	2
TAP	71	144	6
STR	71	192	3
SCL	71	192	3	96	48	0
STR	71	192	7
SCL	71	192	7	96	48	4
TAP	72	0	5
TAP	72	48	5
TAP	72	96	5
TAP	72	96	7
TAP	72	144	5
TAP	72	192	2
TAP	72	240	2
TAP	72	288	0
TAP	72	288	2
STR	72	336	2
SXR	72	336	2	96	144	7
TAP	73	48	7
STR	73	96	7
SXR	73	96	7	96	144	2
TAP	74	0	4
TAP	74	48	3
STR	74	96	2
SLR	74	96	2	96	96	0
STR	74	96	6
SLL	74	96	6	96	96	0
BRK	74	336	1
BRK	74	336	6
TAP	75	48	4
TAP	75	96	3
TAP	75	144	2
STR	75	192	0
SI_	75	192	0	96	48	4
STR	75	192	1
SI_	75	192	1	96	48	4
TAP	76	0	3
TAP	76	48	4
STR	76	96	1
SV_	76	96	1	96	96	3
STR	76	96	5
SV_	76	96	5	96	96	7
TAP	77	0	4
TAP	77	48	3
STR	77	96	2
SV_	77	96	2	96	96	0
STR	77	96	6
SV_	77	96	6	96	96	4
STR	78	0	0
SV_	78	0	0	96	48	3
SV_	78	0	0	96	48	5
STR	78	192	7
SLL	78	192	7	96	48	3
SLR	78	192	7	96	48	3
STR	79	0	0
SXL	79	0	0	96	144	3
TAP	79	96	4
TAP	79	144	5
TAP	79	192	6
STR	79	336	0
SI_	79	336	0	96	48	4
TAP	79	336	1
TAP	80	0	0
HLD	80	0	1	96
TAP	80	144	2
STR	80	144	5
SI_	80	144	5	96	48	7
HLD	80	192	2	96
TAP	80	192	5
STR	80	336	0
SI_	80	336	0	96	48	4
TAP	80	336	3
TAP	81	0	0
HLD	81	0	3	96
TAP	81	144	2
STR	81	144	5
SCR	81	144	5	96	96	2
TAP	81	192	2
TAP	81	192	5
BST	82	0	7
SXL	82	0	7	96	192	2
SXR	82	0	7	96	192	4
BST	83	0	3
SF_	83	0	3	96	192	7
BRK	84	0	1
TAP	84	48	5
TAP	84	96	0
TAP	84	144	6
TAP	84	192	1
TAP	84	240	7
TAP	84	264	6
TAP	84	288	5
TAP	84	336	0
TAP	85	0	4
TAP	85	48	3
TAP	85	96	2
TAP	85	96	6
TAP	85	144	1
STR	85	192	0
SXL	85	192	0	96	48	2
TAP	85	192	7
TAP	85	288	5
TAP	85	336	6
TAP	86	0	7
TAP	86	48	0
STR	86	96	7
SI_	86	96	7	96	48	3
TAP	86	144	6
TAP	86	192	7
TAP	86	288	7
TAP	86	336	0
STR	87	0	7
SI_	87	0	7	96	48	3
TAP	87	48	6
TAP	87	96	7
TAP	87	192	4
TAP	87	240	3
TAP	87	288	1
TAP	87	288	6
TAP	88	0	6
TAP	88	48	2
TAP	88	96	7
TAP	88	144	1
TAP	88	192	6
TAP	88	240	0
TAP	88	264	1
TAP	88	288	2
TAP	88	336	7
TAP	89	0	3
TAP	89	48	4
TAP	89	96	1
TAP	89	96	5
TAP	89	144	6
TAP	89	192	0
STR	89	192	7
SXR	89	192	7	96	48	5
TAP	89	288	2
TAP	89	336	1
BST	90	0	0
SI_	90	0	0	96	96	4
TAP	90	48	0
STR	90	96	6
SI_	90	96	6	96	48	2
TAP	90	144	6
TAP	90	192	7
TAP	90	288	1
TAP	90	336	1
TAP	91	0	0
TAP	91	0	7
STR	91	48	0
SV_	91	48	0	96	48	3
STR	91	48	7
SV_	91	48	7	96	48	4
BST	91	144	0
SCR	91	144	0	96	48	3
BST	91	144	7
SCL	91	144	7	96	48	4
BRK	91	240	0
BRK	91	240	7
BRK	92	0	6
TAP	92	48	2
TAP	92	96	7
TAP	92	144	1
TAP	92	192	6
TAP	92	240	0
TAP	92	264	1
TAP	92	288	2
TAP	92	336	7
TAP	93	0	3
TAP	93	48	2
TAP	93	48	4
TAP	93	96	1
TAP	93	96	5
TAP	93	144	0
TAP	93	144	6
STR	93	192	7
SXR	93	192	7	96	48	5
TAP	93	288	2
TAP	93	336	1
TAP	94	0	0
TAP	94	48	7
STR	94	96	0
SI_	94	96	0	96	48	4
TAP	94	144	1
TAP	94	192	0
TAP	94	288	0
TAP	94	336	7
STR	95	0	0
SI_	95	0	0	96	48	4
TAP	95	48	1
TAP	95	96	0
TAP	95	192	3
TAP	95	240	4
TAP	95	288	1
TAP	95	288	6
TAP	96	0	1
TAP	96	48	5
TAP	96	96	0
TAP	96	144	6
TAP	96	192	1
TAP	96	240	7
TAP	96	264	6
TAP	96	288	5
TAP	96	336	0
TAP	97	0	4
TAP	97	48	3
TAP	97	48	5
TAP	97	96	2
TAP	97	96	6
TAP	97	144	1
TAP	97	144	7
TAP	97	192	0
TAP	97	288	5
TAP	97	312	4
TAP	97	336	5
TAP	97	360	4
BST	98	0	6
SI_	98	0	6	96	48	2
TAP	98	48	6
STR	98	96	0
SI_	98	96	0	96	48	4
TAP	98	144	0
TAP	98	192	7
BST	98	288	6
SCL	98	288	6	96	48	3
TAP	98	336	6
STR	99	0	0
SCR	99	0	0	96	48	3
TAP	99	48	0
TAP	99	96	7
TAP	99	192	3
TAP	99	192	7
TAP	99	240	2
TAP	99	240	6
TAP	99	288	1
TAP	99	288	5
TAP	99	336	0
TAP	99	336	4
STR	100	0	3
SXL	100	0	3	96	672	7
STR	100	0	7
SXL	100	0	7	96	672	3

T_REC_TAP	543
T_REC_BRK	18
T_REC_XTP	0
T_REC_HLD	22
T_REC_XHO	0
T_REC_STR	112
T_REC_BST	8
T_REC_XST	0
T_REC_TTP	0
T_REC_THO	0
T_REC_SLD	126
T_REC_ALL	829
T_NUM_TAP	655
T_NUM_BRK	26
T_NUM_HLD	22
T_NUM_SLD	126
T_NUM_ALL	829
T_JUDGE_TAP	681
T_JUDGE_HLD	73
T_JUDGE_SLD	126
T_JUDGE_ALL	880
TTM_EACHPAIRS	130
TTM_SCR_TAP	327500
TTM_SCR_BRK	67600
TTM_SCR_HLD	22000
TTM_SCR_SLD	189000
TTM_SCR_ALL	606100
TTM_SCR_S	585400
TTM_SCR_SS	603500
TTM_RAT_ACV	10043

