VERSION	0.00.00	1.03.00
FES_MODE	0
BPM_DEF	 79.000	195.000	195.000	 46.000
MET_DEF	4	4
RESOLUTION	384
CLK_DEF	384
COMPATIBLE_CODE	MA2

BPM	0	0	 79.000
BPM	1	0	 61.000
BPM	1	96	 79.000
BPM	1	192	 82.000
BPM	1	288	 83.000
BPM	2	0	 73.000
BPM	2	96	 66.000
BPM	2	192	 46.000
BPM	2	288	 48.000
BPM	3	0	 71.000
BPM	3	96	 67.000
BPM	3	192	 59.000
BPM	3	288	 52.500
BPM	4	0	 47.000
BPM	4	192	 72.800
BPM	5	192	195.000
MET	0	0	4	4

HLD	4	192	2	292
HLD	4	192	4	292
TAP	5	192	1
TAP	5	192	6
BRK	5	288	0
BRK	5	288	7
TAP	6	0	6
TAP	6	0	7
TAP	6	96	0
TAP	6	96	5
TAP	6	192	2
TAP	6	240	3
TAP	6	288	2
TAP	7	0	6
TAP	7	0	7
TAP	7	96	5
TAP	7	144	4
TAP	7	192	5
TAP	7	288	3
TAP	7	288	6
STR	8	0	0
SI_	8	0	0	96	96	3
STR	8	192	7
SI_	8	192	7	96	96	4
STR	9	0	0
SSL	9	0	0	96	192	4
TAP	10	0	4
TAP	10	0	5
TAP	10	96	3
TAP	10	96	6
TAP	10	192	1
TAP	10	240	0
TAP	10	288	1
TAP	11	0	4
TAP	11	0	5
TAP	11	96	6
TAP	11	144	7
TAP	11	192	6
TAP	11	288	0
TAP	11	288	5
TAP	12	0	3
TAP	12	0	4
TAP	12	96	2
TAP	12	96	5
TAP	12	192	1
TAP	12	192	6
TAP	12	288	0
TAP	12	288	7
TAP	13	0	1
TAP	13	0	5
TAP	13	48	1
TAP	13	48	5
TAP	13	144	3
TAP	13	144	4
BRK	13	240	0
BRK	13	240	6
TAP	14	0	1
TAP	14	96	2
TAP	14	96	3
TAP	14	192	6
TAP	14	288	4
TAP	14	288	5
TAP	15	0	0
TAP	15	96	2
TAP	15	96	4
TAP	15	192	7
TAP	15	288	3
TAP	15	288	5
TAP	16	0	0
TAP	16	96	4
TAP	16	96	5
TAP	16	192	7
TAP	16	288	2
TAP	16	288	3
STR	17	0	4
SI_	17	0	4	96	96	1
STR	17	0	5
SI_	17	0	5	96	96	0
TAP	17	288	2
TAP	17	288	7
TAP	18	0	6
TAP	18	96	4
TAP	18	96	5
TAP	18	192	1
TAP	18	288	2
TAP	18	288	3
TAP	19	0	7
TAP	19	96	2
TAP	19	96	4
TAP	19	192	0
TAP	19	288	3
TAP	19	288	5
TAP	20	0	4
TAP	20	48	3
TAP	20	96	4
TAP	20	144	3
TAP	20	192	4
TAP	20	288	1
TAP	20	336	0
TAP	21	0	1
TAP	21	48	0
TAP	21	96	1
TAP	21	192	6
TAP	21	240	7
BRK	21	288	6
HLD	22	0	2	288
TAP	22	0	4
TAP	22	96	4
TAP	22	192	3
TAP	22	288	3
TAP	23	0	3
HLD	23	0	5	288
TAP	23	96	3
TAP	23	192	4
TAP	23	288	4
HLD	24	0	1	288
TAP	24	0	3
TAP	24	96	3
TAP	24	192	2
TAP	24	288	2
STR	25	0	0
SCL	25	0	0	96	192	4
SCR	25	0	0	96	192	4
TAP	26	0	3
HLD	26	0	5	288
TAP	26	96	3
TAP	26	192	4
TAP	26	288	4
HLD	27	0	2	288
TAP	27	0	4
TAP	27	96	4
TAP	27	192	3
TAP	27	288	3
TAP	28	0	4
HLD	28	0	6	288
TAP	28	96	4
TAP	28	192	5
TAP	28	288	5
STR	29	0	7
SCL	29	0	7	96	192	3
SCR	29	0	7	96	192	3
TAP	30	0	1
HLD	30	0	6	288
TAP	30	96	0
TAP	30	144	0
TAP	30	240	7
TAP	30	288	7
HLD	31	0	1	288
TAP	31	0	6
TAP	31	96	7
TAP	31	144	7
TAP	31	240	0
TAP	31	288	0
TAP	32	0	3
HLD	32	0	6	288
TAP	32	96	4
TAP	32	144	4
TAP	32	240	5
TAP	32	288	5
TAP	33	0	4
TAP	33	0	5
TAP	33	96	1
TAP	33	192	2
TAP	33	192	3
TAP	33	288	6
HLD	34	0	1	288
TAP	34	0	5
TAP	34	96	7
TAP	34	144	7
TAP	34	240	0
TAP	34	288	0
TAP	35	0	2
HLD	35	0	6	288
TAP	35	96	0
TAP	35	144	0
TAP	35	240	7
TAP	35	288	7
HLD	36	0	1	288
TAP	36	0	5
TAP	36	96	3
TAP	36	144	3
TAP	36	240	2
TAP	36	288	2
TAP	37	0	2
TAP	37	0	3
TAP	37	96	6
TAP	37	192	4
TAP	37	192	5
TAP	37	288	1
STR	38	0	4
SV_	38	0	4	96	192	1
SV_	38	0	4	96	192	7
STR	39	0	3
SV_	39	0	3	96	192	0
SV_	39	0	3	96	192	6
STR	40	0	4
SUL	40	0	4	96	192	0
SUR	40	0	4	96	192	0
STR	41	0	3
SUL	41	0	3	96	192	7
SUR	41	0	3	96	192	7
TAP	42	0	4
TAP	42	0	5
TAP	42	96	3
TAP	42	96	6
TAP	42	144	3
TAP	42	144	6
TAP	42	288	2
TAP	42	288	3
TAP	43	0	1
TAP	43	0	4
TAP	43	48	1
TAP	43	48	4
TAP	43	192	0
TAP	43	240	7
TAP	43	288	0
TAP	43	336	7
STR	44	0	0
SSL	44	0	0	96	144	4
TAP	44	336	0
TAP	44	336	7
TAP	45	48	3
TAP	45	48	4
TAP	45	144	1
TAP	45	144	6
BRK	45	192	1
BRK	45	192	6
TAP	46	0	0
TAP	46	0	4
TAP	46	96	1
TAP	46	96	5
TAP	46	192	2
TAP	46	192	6
TAP	46	288	3
TAP	46	288	7
TAP	47	0	0
TAP	47	0	4
STR	47	192	0
SI_	47	192	0	96	48	3
TAP	47	192	1
TAP	48	0	6
STR	48	0	7
SI_	48	0	7	96	48	4
STR	48	192	0
SI_	48	192	0	96	48	4
TAP	48	192	1
TAP	49	0	6
STR	49	0	7
SI_	49	0	7	96	48	3
BRK	49	192	0
BRK	49	192	1
TAP	50	0	2
TAP	50	48	3
TAP	50	96	2
TAP	50	144	3
TAP	50	192	2
TAP	50	288	1
TAP	50	288	4
TAP	51	0	5
TAP	51	48	4
TAP	51	96	5
TAP	51	144	4
TAP	51	192	5
TAP	51	288	3
TAP	51	288	6
STR	52	0	4
SXL	52	0	4	96	96	6
SXR	52	0	4	96	96	2
TAP	52	336	0
TAP	52	336	1
TAP	53	48	3
TAP	53	48	6
TAP	53	144	1
TAP	53	144	5
TAP	53	192	1
TAP	53	192	5
BRK	53	288	0
BRK	53	288	6
TAP	54	0	3
TAP	54	0	7
TAP	54	96	2
TAP	54	96	6
TAP	54	192	1
TAP	54	192	5
TAP	54	288	0
TAP	54	288	4
TAP	55	0	3
TAP	55	0	7
TAP	55	192	6
STR	55	192	7
SI_	55	192	7	96	48	4
STR	56	0	0
SI_	56	0	0	96	48	3
TAP	56	0	1
TAP	56	192	6
STR	56	192	7
SI_	56	192	7	96	48	3
STR	57	0	0
SI_	57	0	0	96	48	4
TAP	57	0	1
BRK	57	192	6
BRK	57	192	7
TAP	57	336	0
HLD	58	0	0	144
TAP	58	144	2
HLD	58	192	2	144
TAP	58	336	4
HLD	59	0	4	144
TAP	59	144	6
HLD	59	192	6	144
TAP	59	336	0
STR	60	0	0
SUR	60	0	0	96	192	6
STR	61	0	7
SUL	61	0	7	96	192	1
STR	62	0	3
SUL	62	0	3	96	192	5
STR	63	0	4
SUR	63	0	4	96	192	2
HLD	64	0	0	96
HLD	64	96	1	96
HLD	64	192	2	96
HLD	64	288	3	96
HLD	65	0	4	96
HLD	65	96	5	96
HLD	65	192	6	96
HLD	65	288	7	96
STR	66	0	0
SSL	66	0	0	96	144	4
TAP	66	336	0
TAP	66	336	7
TAP	67	48	3
TAP	67	48	4
TAP	67	144	1
TAP	67	144	6
BRK	67	192	1
BRK	67	192	6
HLD	68	0	2	384
HLD	69	0	3	384
HLD	70	0	4	384
TAP	71	0	5
TAP	71	96	0
TAP	71	144	7
BRK	71	192	1
BRK	71	192	6
TAP	72	0	6
TAP	72	48	7
TAP	72	96	6
TAP	72	144	7
TAP	72	192	0
TAP	72	192	5
TAP	72	288	2
TAP	72	288	4
TAP	73	0	1
TAP	73	48	0
TAP	73	96	1
TAP	73	144	0
TAP	73	192	2
TAP	73	192	7
TAP	73	288	3
TAP	73	288	5
TAP	74	0	0
TAP	74	0	7
STR	74	96	1
SI_	74	96	1	96	48	4
STR	74	96	6
SI_	74	96	6	96	48	3
TAP	74	336	6
TAP	74	336	7
TAP	75	48	1
TAP	75	48	4
TAP	75	144	2
TAP	75	144	6
TAP	75	192	2
TAP	75	192	6
BRK	75	288	0
BRK	75	288	7
STR	76	0	4
SI_	76	0	4	96	96	1
STR	76	192	3
SI_	76	192	3	96	96	6
STR	77	0	5
SI_	77	0	5	96	96	0
STR	77	192	2
SI_	77	192	2	96	96	7
STR	78	0	6
SI_	78	0	6	96	96	3
STR	78	192	1
SI_	78	192	1	96	96	4
STR	79	0	7
SI_	79	0	7	96	96	3
BRK	79	192	0
TAP	79	336	7
HLD	80	0	7	144
TAP	80	144	5
HLD	80	192	5	144
TAP	80	336	3
HLD	81	0	3	144
TAP	81	144	1
HLD	81	192	1	144
TAP	81	336	7
STR	82	0	7
SI_	82	0	7	96	192	4
BST	83	0	3
SCL	83	0	3	96	192	0
BST	83	0	4
SCR	83	0	4	96	192	7
TAP	84	0	6
TAP	84	96	2
TAP	84	96	3
TAP	84	192	1
TAP	84	288	4
TAP	84	288	5
TAP	85	0	7
TAP	85	96	3
TAP	85	144	4
TAP	85	192	3
TAP	85	288	0
TAP	85	288	1
TAP	86	0	7
TAP	86	96	2
TAP	86	96	4
TAP	86	192	0
TAP	86	288	3
TAP	86	288	5
STR	87	0	2
SI_	87	0	2	96	96	7
STR	87	0	3
SI_	87	0	3	96	96	6
TAP	87	288	0
TAP	87	288	5
TAP	88	0	1
TAP	88	96	4
TAP	88	96	5
TAP	88	192	6
TAP	88	288	2
TAP	88	288	3
TAP	89	0	0
TAP	89	96	4
TAP	89	144	3
TAP	89	192	4
TAP	89	288	6
TAP	89	288	7
TAP	90	0	5
TAP	90	48	5
TAP	90	96	4
TAP	90	192	2
TAP	90	240	2
TAP	90	288	3
TAP	91	0	0
TAP	91	0	7
TAP	91	48	0
TAP	91	48	7
TAP	91	144	3
TAP	91	144	4
BRK	91	240	1
BRK	91	240	6
HLD	92	0	1	96
HLD	92	96	2	96
TAP	92	192	3
TAP	92	288	4
TAP	92	288	5
HLD	93	0	6	96
HLD	93	96	5	96
TAP	93	192	4
TAP	93	288	2
TAP	93	288	3
TAP	94	0	1
TAP	94	48	1
TAP	94	96	0
TAP	94	192	6
TAP	94	240	6
TAP	94	288	7
TAP	95	0	2
TAP	95	48	2
TAP	95	96	3
TAP	95	192	4
TAP	95	192	5
BRK	95	288	0
BRK	95	288	7
HLD	96	0	6	96
HLD	96	96	5	96
TAP	96	192	4
TAP	96	288	2
TAP	96	288	3
HLD	97	0	1	96
HLD	97	96	2	96
TAP	97	192	3
TAP	97	288	4
TAP	97	288	5
TAP	98	0	2
TAP	98	48	3
TAP	98	96	2
BRK	98	192	1
BRK	98	192	4
TAP	98	288	5
TAP	98	336	4
TAP	99	0	5
BRK	99	96	3
BRK	99	96	6
TAP	99	192	0
TAP	99	240	7
TAP	99	288	0
STR	100	0	0
SXL	100	0	0	96	672	3
STR	100	0	7
SXR	100	0	7	96	672	4

T_REC_TAP	347
T_REC_BRK	28
T_REC_XTP	0
T_REC_HLD	41
T_REC_XHO	0
T_REC_STR	40
T_REC_BST	2
T_REC_XST	0
T_REC_TTP	0
T_REC_THO	0
T_REC_SLD	49
T_REC_ALL	507
T_NUM_TAP	387
T_NUM_BRK	30
T_NUM_HLD	41
T_NUM_SLD	49
T_NUM_ALL	507
T_JUDGE_TAP	417
T_JUDGE_HLD	178
T_JUDGE_SLD	49
T_JUDGE_ALL	644
TTM_EACHPAIRS	124
TTM_SCR_TAP	193500
TTM_SCR_BRK	78000
TTM_SCR_HLD	41000
TTM_SCR_SLD	73500
TTM_SCR_ALL	386000
TTM_SCR_S	371550
TTM_SCR_SS	383000
TTM_RAT_ACV	10078

