VERSION	0.00.00	1.03.00
FES_MODE	0
BPM_DEF	 79.000	195.000	195.000	 46.000
MET_DEF	4	4
RESOLUTION	384
CLK_DEF	384
COMPATIBLE_CODE	MA2

BPM	0	0	 79.000
BPM	1	0	 61.000
BPM	1	96	 79.000
BPM	1	192	 82.000
BPM	1	288	 83.000
BPM	2	0	 73.000
BPM	2	96	 66.000
BPM	2	192	 46.000
BPM	2	288	 48.000
BPM	3	0	 71.000
BPM	3	96	 67.000
BPM	3	192	 59.000
BPM	3	288	 52.500
BPM	4	0	 47.000
BPM	4	192	 72.800
BPM	5	192	195.000
MET	0	0	4	4

STR	4	192	0
SXL	4	192	0	24	268	3
STR	4	192	7
SXR	4	192	7	24	268	4
TAP	5	192	3
TAP	5	192	4
BRK	5	288	2
BRK	5	288	5
TAP	6	0	2
TAP	6	96	2
TAP	6	192	2
TAP	6	192	3
TAP	7	0	5
TAP	7	96	5
TAP	7	192	4
TAP	7	192	5
TAP	8	0	2
TAP	8	96	3
TAP	8	192	1
TAP	8	192	4
TAP	9	0	5
TAP	9	96	4
TAP	9	192	3
TAP	9	192	6
TAP	10	0	5
TAP	10	96	5
TAP	10	192	4
TAP	10	192	5
TAP	11	0	2
TAP	11	96	2
TAP	11	192	2
TAP	11	192	3
TAP	12	0	4
TAP	12	96	4
TAP	12	192	3
TAP	12	192	4
STR	13	0	3
SI_	13	0	3	96	168	0
STR	13	0	4
SI_	13	0	4	96	168	7
TAP	14	0	6
TAP	14	96	6
TAP	14	192	5
TAP	14	288	5
TAP	15	0	4
TAP	15	96	4
TAP	15	192	3
TAP	15	192	5
TAP	16	0	2
TAP	16	0	3
TAP	16	96	2
TAP	16	96	3
TAP	16	192	1
TAP	16	192	4
TAP	17	0	4
TAP	17	0	5
TAP	17	96	3
TAP	17	96	6
TAP	17	192	2
TAP	17	192	7
TAP	18	0	1
TAP	18	96	1
TAP	18	192	2
TAP	18	288	2
TAP	19	0	3
TAP	19	96	3
TAP	19	192	2
TAP	19	192	4
TAP	20	0	4
TAP	20	0	5
TAP	20	96	4
TAP	20	96	5
TAP	20	192	3
TAP	20	192	6
TAP	21	0	3
TAP	21	0	4
TAP	21	96	2
TAP	21	96	5
BRK	21	192	1
BRK	21	192	6
HLD	22	0	6	384
TAP	22	96	7
TAP	22	192	7
TAP	22	288	7
TAP	23	0	7
TAP	23	96	6
TAP	23	96	7
TAP	23	192	0
TAP	23	192	5
HLD	24	0	1	384
TAP	24	96	0
TAP	24	192	0
TAP	24	288	0
TAP	25	0	0
TAP	25	96	0
TAP	25	96	1
TAP	25	192	2
TAP	25	192	7
HLD	26	0	2	384
TAP	26	96	3
TAP	26	192	3
TAP	26	288	3
TAP	27	0	3
TAP	27	96	2
TAP	27	96	3
TAP	27	192	1
TAP	27	192	4
HLD	28	0	5	384
TAP	28	96	4
TAP	28	192	4
TAP	28	288	4
TAP	29	0	4
TAP	29	96	4
TAP	29	96	5
TAP	29	192	3
TAP	29	192	6
TAP	30	0	6
TAP	30	96	6
TAP	30	96	7
TAP	30	192	1
TAP	30	288	0
TAP	30	288	1
TAP	31	0	6
TAP	31	96	6
TAP	31	96	7
TAP	31	192	0
TAP	31	192	5
TAP	32	0	1
TAP	32	96	0
TAP	32	96	1
TAP	32	192	6
TAP	32	288	6
TAP	32	288	7
TAP	33	0	1
TAP	33	96	0
TAP	33	96	1
TAP	33	192	2
TAP	33	192	7
TAP	34	0	2
TAP	34	96	2
TAP	34	96	3
TAP	34	192	5
TAP	34	288	4
TAP	34	288	5
TAP	35	0	2
TAP	35	96	2
TAP	35	96	3
TAP	35	192	1
TAP	35	192	4
TAP	36	0	5
TAP	36	96	4
TAP	36	96	5
TAP	36	192	2
STR	36	288	2
SI_	36	288	2	96	168	7
STR	36	288	3
SI_	36	288	3	96	168	6
HLD	38	0	5	96
TAP	38	96	4
TAP	38	192	3
TAP	38	192	6
HLD	39	0	2	96
TAP	39	96	3
TAP	39	192	1
TAP	39	192	4
HLD	40	0	5	96
TAP	40	96	4
HLD	40	192	2	96
TAP	40	288	3
STR	41	0	4
SI_	41	0	4	96	168	0
HLD	42	0	1	96
TAP	42	96	0
TAP	42	144	0
HLD	42	288	6	96
TAP	43	0	7
TAP	43	48	7
HLD	43	192	0	96
TAP	43	288	7
TAP	43	336	7
BST	44	0	0
SF_	44	0	0	96	336	4
HLD	46	0	5	96
TAP	46	96	4
HLD	46	192	2	96
TAP	46	288	3
TAP	47	0	4
TAP	47	96	3
TAP	47	96	5
TAP	47	192	2
TAP	47	192	6
HLD	48	0	1	96
TAP	48	96	0
HLD	48	192	6	96
TAP	48	288	7
TAP	49	0	0
TAP	49	96	1
TAP	49	96	7
TAP	49	192	2
TAP	49	192	6
STR	50	0	4
SI_	50	0	4	96	168	1
STR	50	0	5
SI_	50	0	5	96	168	0
STR	51	0	0
SCR	51	0	0	96	192	3
STR	51	0	7
SCL	51	0	7	96	192	4
STR	52	0	3
SXR	52	0	3	96	192	1
STR	52	0	4
SXL	52	0	4	96	192	6
TAP	53	0	0
TAP	53	0	7
TAP	53	96	0
TAP	53	96	7
BRK	53	192	1
BRK	53	192	6
HLD	54	0	1	96
TAP	54	96	0
HLD	54	192	6	96
TAP	54	288	7
TAP	55	0	0
TAP	55	96	1
TAP	55	96	7
TAP	55	192	2
TAP	55	192	6
HLD	56	0	5	96
TAP	56	96	4
HLD	56	192	2	96
TAP	56	288	3
TAP	57	0	4
TAP	57	96	3
TAP	57	96	5
TAP	57	192	2
TAP	57	192	6
STR	58	0	7
SI_	58	0	7	96	144	3
STR	59	0	3
SCL	59	0	3	96	168	0
STR	59	0	4
SCR	59	0	4	96	168	7
HLD	60	0	7	192
TAP	60	192	0
HLD	61	0	0	192
HLD	61	0	7	192
HLD	62	0	1	192
TAP	62	192	2
HLD	63	0	1	192
HLD	63	0	2	192
HLD	64	0	3	192
HLD	64	192	4	192
HLD	65	0	5	192
HLD	65	192	6	192
STR	66	0	7
SCR	66	0	7	96	168	2
TAP	67	0	3
TAP	67	0	4
TAP	67	96	3
TAP	67	96	4
BRK	67	192	2
BRK	67	192	5
HLD	68	0	1	192
HLD	68	192	2	192
HLD	69	0	3	192
TAP	69	192	4
HLD	70	0	6	192
HLD	70	192	5	192
TAP	71	0	4
TAP	71	96	4
TAP	71	192	3
TAP	71	192	5
STR	72	0	2
SI_	72	0	2	96	168	7
STR	72	0	3
SI_	72	0	3	96	168	6
STR	73	0	0
SCR	73	0	0	96	192	3
STR	73	0	7
SCL	73	0	7	96	192	4
STR	74	0	3
SXR	74	0	3	96	192	1
STR	74	0	4
SXL	74	0	4	96	192	6
TAP	75	0	0
TAP	75	0	7
TAP	75	96	0
TAP	75	96	7
BRK	75	192	1
BRK	75	192	6
HLD	76	0	6	96
TAP	76	96	7
HLD	76	192	1	96
TAP	76	288	0
TAP	77	0	6
TAP	77	96	5
TAP	77	96	7
TAP	77	192	0
TAP	77	192	4
HLD	78	0	2	96
TAP	78	96	3
HLD	78	192	5	96
TAP	78	288	4
TAP	79	0	2
TAP	79	96	1
TAP	79	96	3
TAP	79	192	0
TAP	79	192	4
STR	80	0	0
SI_	80	0	0	96	144	4
STR	81	0	3
SCL	81	0	3	96	168	0
STR	81	0	4
SCR	81	0	4	96	168	7
STR	82	0	0
SXL	82	0	0	96	480	3
STR	82	0	7
SXR	82	0	7	96	480	4
TAP	84	0	2
TAP	84	96	2
TAP	84	192	1
TAP	84	288	1
TAP	85	0	0
TAP	85	96	0
TAP	85	192	1
TAP	85	192	7
TAP	86	0	6
TAP	86	0	7
TAP	86	96	6
TAP	86	96	7
TAP	86	192	0
TAP	86	192	5
TAP	87	0	0
TAP	87	0	1
TAP	87	96	2
TAP	87	96	7
TAP	87	192	3
TAP	87	192	6
TAP	88	0	5
TAP	88	96	5
TAP	88	192	6
TAP	88	288	6
TAP	89	0	7
TAP	89	96	7
TAP	89	192	0
TAP	89	192	6
TAP	90	0	0
TAP	90	0	1
TAP	90	96	0
TAP	90	96	1
TAP	90	192	2
TAP	90	192	7
TAP	91	0	0
TAP	91	0	7
TAP	91	96	1
TAP	91	96	6
BRK	91	192	2
BRK	91	192	5
TAP	92	0	5
TAP	92	96	5
TAP	92	192	6
TAP	92	288	6
TAP	93	0	7
TAP	93	96	0
TAP	93	96	6
TAP	93	192	1
TAP	93	192	5
TAP	94	0	0
TAP	94	0	1
TAP	94	96	0
TAP	94	96	1
TAP	94	192	2
TAP	94	192	7
TAP	95	0	6
TAP	95	0	7
TAP	95	96	0
TAP	95	96	5
TAP	95	192	1
TAP	95	192	4
TAP	96	0	2
TAP	96	96	2
TAP	96	192	1
TAP	96	288	1
TAP	97	0	0
TAP	97	96	1
TAP	97	96	7
TAP	97	192	2
TAP	97	192	6
TAP	98	0	6
TAP	98	0	7
TAP	98	96	6
TAP	98	96	7
TAP	98	192	0
TAP	98	192	5
TAP	99	0	0
TAP	99	0	7
TAP	99	96	1
TAP	99	96	6
TAP	99	192	2
TAP	99	192	5
BST	99	288	3
SXR	99	288	3	96	432	1
BST	99	288	4
SXL	99	288	4	96	432	6

T_REC_TAP	292
T_REC_BRK	12
T_REC_XTP	0
T_REC_HLD	38
T_REC_XHO	0
T_REC_STR	28
T_REC_BST	3
T_REC_XST	0
T_REC_TTP	0
T_REC_THO	0
T_REC_SLD	31
T_REC_ALL	404
T_NUM_TAP	320
T_NUM_BRK	15
T_NUM_HLD	38
T_NUM_SLD	31
T_NUM_ALL	404
T_JUDGE_TAP	335
T_JUDGE_HLD	130
T_JUDGE_SLD	31
T_JUDGE_ALL	496
TTM_EACHPAIRS	113
TTM_SCR_TAP	160000
TTM_SCR_BRK	39000
TTM_SCR_HLD	38000
TTM_SCR_SLD	46500
TTM_SCR_ALL	283500
TTM_SCR_S	273550
TTM_SCR_SS	282000
TTM_RAT_ACV	10053

