VERSION	0.00.00	1.03.00
FES_MODE	0
BPM_DEF	 79.000	195.000	195.000	 46.000
MET_DEF	4	4
RESOLUTION	384
CLK_DEF	384
COMPATIBLE_CODE	MA2

BPM	0	0	 79.000
BPM	1	0	 61.000
BPM	1	96	 79.000
BPM	1	192	 82.000
BPM	1	288	 83.000
BPM	2	0	 73.000
BPM	2	96	 66.000
BPM	2	192	 46.000
BPM	2	288	 48.000
BPM	3	0	 71.000
BPM	3	96	 67.000
BPM	3	192	 59.000
BPM	3	288	 52.500
BPM	4	0	 47.000
BPM	4	192	 72.800
BPM	5	192	195.000
MET	0	0	4	4

TAP	6	0	7
TAP	6	192	7
TAP	7	0	6
TAP	7	192	6
TAP	8	0	5
TAP	8	192	5
TAP	9	0	4
TAP	9	192	4
TAP	10	0	3
TAP	10	192	3
TAP	11	0	2
TAP	11	192	2
TAP	12	0	1
TAP	12	192	1
TAP	13	0	0
TAP	13	192	0
TAP	14	0	7
TAP	14	192	7
TAP	15	0	0
TAP	15	96	0
TAP	15	192	0
TAP	15	192	7
TAP	16	0	1
TAP	16	192	1
TAP	17	0	2
TAP	17	96	2
TAP	17	192	2
TAP	17	192	3
TAP	18	0	3
TAP	18	192	3
TAP	19	0	4
TAP	19	96	4
TAP	19	192	3
TAP	19	192	4
TAP	20	0	5
TAP	20	192	5
TAP	21	0	6
TAP	21	96	6
BRK	21	192	6
BRK	21	192	7
STR	22	0	0
SI_	22	0	0	96	288	3
STR	24	0	7
SI_	24	0	7	96	288	4
STR	26	0	0
SI_	26	0	0	96	288	5
STR	28	0	7
SI_	28	0	7	96	288	2
TAP	30	0	1
TAP	30	192	1
TAP	31	0	0
TAP	31	192	0
HLD	32	0	6	384
HLD	32	0	7	384
TAP	34	0	5
TAP	34	192	5
TAP	35	0	4
TAP	35	192	4
HLD	36	0	2	384
HLD	36	0	3	384
STR	38	0	4
SI_	38	0	4	96	288	7
STR	40	0	3
SI_	40	0	3	96	288	0
TAP	42	0	6
TAP	42	0	7
TAP	42	192	6
TAP	42	192	7
TAP	43	0	0
TAP	43	0	1
TAP	43	192	0
TAP	43	192	1
TAP	44	0	2
TAP	44	0	3
TAP	44	192	2
TAP	44	192	3
TAP	45	0	4
TAP	45	0	5
BRK	45	192	4
BRK	45	192	5
TAP	46	0	3
TAP	46	96	3
TAP	46	192	3
TAP	47	0	2
TAP	47	96	2
TAP	47	192	2
TAP	48	0	1
TAP	48	96	1
TAP	48	192	1
TAP	49	0	0
TAP	49	96	0
TAP	49	192	0
TAP	49	192	7
TAP	50	0	7
TAP	50	96	7
TAP	50	192	7
TAP	51	0	6
TAP	51	96	6
TAP	51	192	6
TAP	52	0	5
TAP	52	96	5
TAP	52	192	5
TAP	53	0	4
TAP	53	96	4
TAP	53	192	3
TAP	53	192	4
TAP	54	0	3
TAP	54	96	3
TAP	54	192	3
TAP	55	0	4
TAP	55	96	4
TAP	55	192	4
TAP	56	0	5
TAP	56	96	5
TAP	56	192	5
TAP	57	0	6
TAP	57	96	6
TAP	57	192	6
TAP	57	192	7
TAP	58	0	7
TAP	58	96	7
TAP	58	192	7
TAP	59	0	0
TAP	59	96	0
TAP	59	192	0
TAP	59	192	7
STR	60	0	7
SI_	60	0	7	96	288	3
STR	62	0	0
SI_	62	0	0	96	288	4
TAP	64	0	7
TAP	64	192	6
TAP	65	0	5
TAP	65	192	4
TAP	66	0	3
TAP	66	192	2
TAP	67	0	1
BRK	67	192	0
HLD	68	0	7	384
HLD	70	0	0	384
STR	72	0	7
SI_	72	0	7	96	288	2
STR	74	0	0
SI_	74	0	0	96	288	5
TAP	76	0	6
TAP	76	96	6
TAP	76	192	6
TAP	77	0	7
TAP	77	96	7
TAP	77	192	7
TAP	78	0	0
TAP	78	96	0
TAP	78	192	0
TAP	79	0	1
TAP	79	96	1
TAP	79	192	1
TAP	80	0	7
TAP	80	192	0
TAP	81	0	7
TAP	81	192	0
STR	82	0	0
SI_	82	0	0	96	288	3
STR	82	0	7
SI_	82	0	7	96	288	4
TAP	84	0	0
TAP	84	96	0
TAP	84	192	0
TAP	85	0	1
TAP	85	96	1
TAP	85	192	1
TAP	86	0	2
TAP	86	96	2
TAP	86	192	2
TAP	87	0	3
TAP	87	0	4
TAP	87	96	3
TAP	87	96	4
TAP	87	192	3
TAP	87	192	4
TAP	88	0	4
TAP	88	96	4
TAP	88	192	4
TAP	89	0	5
TAP	89	96	5
TAP	89	192	5
TAP	90	0	6
TAP	90	96	6
TAP	90	192	6
TAP	91	0	0
TAP	91	0	7
TAP	91	96	0
TAP	91	96	7
TAP	91	192	0
TAP	91	192	7
TAP	92	0	0
TAP	92	96	0
TAP	92	192	0
TAP	92	288	0
TAP	93	0	7
TAP	93	96	7
TAP	93	192	7
TAP	94	0	6
TAP	94	96	6
TAP	94	192	6
TAP	94	288	6
TAP	95	0	5
TAP	95	96	5
TAP	95	192	5
TAP	96	0	4
TAP	96	96	4
TAP	96	192	4
TAP	96	288	4
TAP	97	0	3
TAP	97	96	3
TAP	97	192	3
TAP	98	0	2
TAP	98	96	2
TAP	98	192	2
TAP	99	0	1
TAP	99	96	1
TAP	99	192	1
STR	100	0	0
SI_	100	0	0	96	288	4

T_REC_TAP	186
T_REC_BRK	5
T_REC_XTP	0
T_REC_HLD	6
T_REC_XHO	0
T_REC_STR	13
T_REC_BST	0
T_REC_XST	0
T_REC_TTP	0
T_REC_THO	0
T_REC_SLD	13
T_REC_ALL	223
T_NUM_TAP	199
T_NUM_BRK	5
T_NUM_HLD	6
T_NUM_SLD	13
T_NUM_ALL	223
T_JUDGE_TAP	204
T_JUDGE_HLD	48
T_JUDGE_SLD	13
T_JUDGE_ALL	265
TTM_EACHPAIRS	25
TTM_SCR_TAP	99500
TTM_SCR_BRK	13000
TTM_SCR_HLD	6000
TTM_SCR_SLD	19500
TTM_SCR_ALL	138000
TTM_SCR_S	133400
TTM_SCR_SS	137500
TTM_RAT_ACV	10036

