VERSION	0.00.00	1.03.00
FES_MODE	0
BPM_DEF	180.000	180.000	180.000	180.000
MET_DEF	4	4
RESOLUTION	384
CLK_DEF	384
COMPATIBLE_CODE	MA2

BPM	0	0	180.000
MET	0	0	4	4

STR	3	0	3
SLL	3	0	3	96	144	4
STR	3	0	5
SLR	3	0	5	96	144	4
STR	4	0	2
SV_	4	0	2	96	144	4
SLL	4	0	2	96	144	4
STR	5	0	3
SI_	5	0	3	96	144	7
STR	5	0	4
SI_	5	0	4	96	144	0
STR	6	0	7
SI_	6	0	7	96	96	3
TAP	6	144	7
TAP	6	192	4
TAP	6	216	5
TAP	6	240	6
TAP	6	264	7
TAP	6	288	0
TAP	6	312	1
TAP	6	336	2
TAP	6	360	3
TAP	7	0	4
TAP	7	0	5
TAP	7	72	4
TAP	7	96	4
TAP	7	96	5
TAP	7	144	6
TAP	7	192	4
TAP	7	192	5
TAP	7	240	3
TAP	7	288	4
TAP	7	288	5
TAP	7	336	6
TAP	8	0	2
TAP	8	0	3
TAP	8	72	3
TAP	8	96	2
TAP	8	96	3
TAP	8	144	1
TAP	8	192	2
TAP	8	192	3
TAP	8	240	4
TAP	8	288	2
TAP	8	288	3
TAP	8	336	1
TAP	9	0	3
TAP	9	24	4
TAP	9	48	3
TAP	9	72	4
TAP	9	96	3
TAP	9	120	4
TAP	9	144	3
TAP	9	168	4
TAP	9	192	3
TAP	9	216	4
TAP	9	240	3
TAP	9	264	4
TAP	9	288	3
TAP	9	300	2
TAP	9	312	1
TAP	9	324	0
TAP	9	336	7
TAP	9	348	6
TAP	9	360	5
TAP	9	372	4
BRK	10	0	3
BRK	10	0	7
BRK	10	48	7
BRK	10	96	7
BRK	10	144	7
BRK	10	192	3
BRK	10	216	4
BRK	10	240	3
BRK	10	288	1
BRK	10	288	6
TAP	11	0	0
TAP	11	0	7
TAP	11	96	4
TAP	11	96	5
TAP	11	144	3
TAP	11	192	4
TAP	11	192	5
TAP	11	240	6
TAP	11	288	4
TAP	11	288	5
TAP	12	0	4
TAP	12	0	5
TAP	12	48	3
TAP	12	96	4
TAP	12	96	5
TAP	12	144	6
TAP	12	192	4
TAP	12	192	5
TAP	12	240	3
TAP	12	264	3
TAP	12	288	4
TAP	12	288	5
TAP	12	336	6
TAP	12	360	6
TAP	13	0	4
TAP	13	0	5
TAP	13	96	4
TAP	13	96	5
TAP	13	144	3
TAP	13	192	4
TAP	13	192	5
TAP	13	240	6
TAP	13	288	4
TAP	13	288	5
TAP	14	0	4
TAP	14	0	5
TAP	14	48	6
TAP	14	96	4
TAP	14	96	5
TAP	14	144	3
TAP	14	192	4
TAP	14	192	5
TAP	14	240	3
TAP	14	240	6
TAP	14	288	0
TAP	14	312	7
TAP	14	336	0
BRK	15	0	1
BRK	15	0	6
TAP	15	96	2
TAP	15	96	3
TAP	15	144	4
TAP	15	192	2
TAP	15	192	3
TAP	15	240	1
TAP	15	288	2
TAP	15	288	3
TAP	16	0	2
TAP	16	0	3
TAP	16	48	4
TAP	16	96	2
TAP	16	96	3
TAP	16	144	1
TAP	16	192	2
TAP	16	192	3
TAP	16	240	4
TAP	16	264	4
TAP	16	288	2
TAP	16	288	3
TAP	16	336	1
TAP	16	360	1
TAP	17	0	2
TAP	17	0	3
TAP	17	96	2
TAP	17	96	3
TAP	17	144	4
TAP	17	192	2
TAP	17	192	3
TAP	17	240	1
TAP	17	288	2
TAP	17	288	3
TAP	17	336	1
TAP	17	336	4
TAP	18	0	0
TAP	18	24	7
TAP	18	48	0
TAP	18	72	7
TAP	18	96	0
TAP	18	120	7
TAP	18	144	0
TAP	18	168	7
STR	18	192	0
SI_	18	192	0	96	48	4
TAP	18	216	7
TAP	18	240	0
TAP	18	288	0
TAP	18	288	7
TAP	19	0	2
TAP	19	0	5
TAP	19	96	6
TAP	19	96	7
TAP	19	144	5
TAP	19	192	6
TAP	19	192	7
TAP	19	240	0
TAP	19	288	6
TAP	19	288	7
TAP	20	0	6
TAP	20	0	7
TAP	20	48	5
TAP	20	96	6
TAP	20	96	7
TAP	20	144	0
TAP	20	192	6
TAP	20	192	7
TAP	20	240	4
TAP	20	240	5
TAP	20	288	6
TAP	20	288	7
TAP	20	336	0
TAP	20	336	1
TAP	21	0	2
TAP	21	0	3
TAP	21	96	0
TAP	21	96	1
TAP	21	144	2
TAP	21	192	0
TAP	21	192	1
TAP	21	240	7
TAP	21	288	0
TAP	21	288	1
TAP	22	0	0
TAP	22	0	1
TAP	22	48	2
TAP	22	96	0
TAP	22	96	1
TAP	22	144	7
TAP	22	192	0
TAP	22	192	1
TAP	22	240	2
TAP	22	240	3
TAP	22	288	0
TAP	22	288	1
TAP	22	336	6
TAP	22	336	7
TAP	23	0	4
TAP	23	0	5
TAP	23	96	6
TAP	23	96	7
TAP	23	144	5
TAP	23	192	6
TAP	23	192	7
TAP	23	240	0
TAP	23	288	6
TAP	23	288	7
TAP	24	0	6
TAP	24	0	7
TAP	24	48	5
TAP	24	96	6
TAP	24	96	7
TAP	24	144	0
TAP	24	192	6
TAP	24	192	7
TAP	24	240	4
TAP	24	240	5
TAP	24	288	6
TAP	24	288	7
TAP	24	336	0
TAP	24	336	1
HLD	25	0	2	96
HLD	25	0	3	96
HLD	25	144	4	96
HLD	25	144	5	96
HLD	25	288	0	48
HLD	25	288	7	48
TAP	26	0	0
TAP	26	0	7
TAP	26	48	1
TAP	26	48	6
TAP	26	96	2
TAP	26	96	5
TAP	26	144	3
TAP	26	144	4
STR	26	192	0
SI_	26	192	0	96	48	4
STR	26	192	7
SI_	26	192	7	96	48	3
TAP	26	240	2
TAP	26	240	5
BRK	26	288	0
BRK	26	288	7
TAP	27	0	2
TAP	27	0	5
STR	27	48	1
SI_	27	48	1	96	48	4
HLD	27	72	0	72
TAP	27	96	1
STR	27	192	6
SI_	27	192	6	96	48	3
HLD	27	216	7	72
TAP	27	240	6
STR	27	336	0
SI_	27	336	0	96	48	4
HLD	27	360	7	72
TAP	28	0	0
STR	28	96	7
SI_	28	96	7	96	48	3
HLD	28	120	0	72
TAP	28	144	7
TAP	28	240	0
TAP	28	288	1
TAP	28	336	2
TAP	29	0	3
TAP	29	0	4
STR	29	48	5
SI_	29	48	5	96	48	0
HLD	29	72	4	72
TAP	29	96	5
STR	29	192	2
SI_	29	192	2	96	48	7
HLD	29	216	3	72
TAP	29	240	2
TAP	29	336	6
TAP	30	0	5
TAP	30	24	4
TAP	30	48	5
TAP	30	72	4
TAP	30	96	5
TAP	30	144	2
TAP	30	168	3
TAP	30	192	2
TAP	30	216	3
TAP	30	240	2
TAP	30	288	1
TAP	30	288	6
TAP	30	336	1
TAP	30	336	6
TAP	31	0	0
TAP	31	0	7
STR	31	48	6
SI_	31	48	6	96	48	3
HLD	31	72	7	72
TAP	31	96	6
STR	31	192	1
SI_	31	192	1	96	48	4
HLD	31	216	0	72
TAP	31	240	1
STR	31	336	7
SI_	31	336	7	96	48	3
HLD	31	360	0	72
TAP	32	0	7
STR	32	96	0
SI_	32	96	0	96	48	4
HLD	32	120	7	72
TAP	32	144	0
TAP	32	240	7
TAP	32	288	6
TAP	32	336	5
TAP	33	0	3
TAP	33	0	4
TAP	33	48	3
TAP	33	48	4
TAP	33	96	2
TAP	33	96	5
TAP	33	144	2
TAP	33	144	5
TAP	33	192	1
TAP	33	192	6
TAP	33	240	1
TAP	33	240	6
TAP	33	288	0
TAP	33	288	7
TAP	33	336	0
TAP	33	336	7
TAP	34	0	1
TAP	34	0	6
TAP	34	72	3
TAP	34	72	4
TAP	34	144	0
TAP	34	144	7
HLD	34	192	0	96
HLD	34	192	7	96
TAP	35	0	0
STR	35	0	7
SCR	35	0	7	96	384	7
STR	36	0	7
SCR	36	0	7	96	384	7
STR	37	0	7
SCR	37	0	7	96	384	7
STR	38	0	7
SI_	38	0	7	96	48	5
STR	38	96	0
SI_	38	96	0	96	48	4
STR	38	192	1
SI_	38	192	1	96	48	3
STR	39	0	7
SI_	39	0	7	96	48	1
BRK	39	96	6
STR	39	192	1
SV_	39	192	1	96	48	3
BRK	39	192	6
BRK	39	240	6
BRK	39	336	6
STR	40	0	7
SI_	40	0	7	96	48	1
BRK	40	48	6
BRK	40	96	6
STR	40	192	1
SV_	40	192	1	96	48	3
BRK	40	192	6
STR	41	0	6
SI_	41	0	6	96	48	0
BRK	41	96	5
STR	41	192	0
SV_	41	192	0	96	48	2
BRK	41	192	5
BRK	41	240	5
BRK	41	336	5
STR	42	0	6
SI_	42	0	6	96	48	0
BRK	42	48	5
BRK	42	96	5
STR	42	192	0
SV_	42	192	0	96	48	2
BRK	42	192	5
BRK	42	288	6
STR	43	0	7
SI_	43	0	7	96	48	1
BRK	43	96	6
STR	43	192	1
SV_	43	192	1	96	48	3
BRK	43	192	6
BRK	43	240	6
BRK	43	336	6
STR	44	0	7
SI_	44	0	7	96	48	1
BRK	44	48	6
BRK	44	96	6
STR	44	192	1
SV_	44	192	1	96	48	3
BRK	44	192	6
BRK	44	288	6
TAP	45	0	5
TAP	45	48	6
TAP	45	96	7
TAP	45	144	0
TAP	45	192	1
TAP	45	240	2
TAP	45	288	3
TAP	45	336	4
STR	46	0	1
SI_	46	0	1	96	48	4
STR	46	0	5
SI_	46	0	5	96	48	0
TAP	46	96	1
TAP	46	96	5
BRK	46	192	2
BRK	46	192	6
HLD	47	0	2	48
HLD	47	0	5	48
HLD	47	96	2	48
HLD	47	96	5	48
HLD	47	192	2	48
TAP	47	192	5
TAP	47	240	4
TAP	47	288	2
HLD	47	288	5	48
TAP	47	336	3
HLD	48	0	2	48
HLD	48	0	5	48
TAP	48	96	2
HLD	48	96	5	48
TAP	48	144	3
HLD	48	192	2	48
TAP	48	192	5
TAP	48	240	4
HLD	48	288	2	48
HLD	48	288	5	48
HLD	49	0	2	48
HLD	49	0	5	48
HLD	49	96	2	48
HLD	49	96	5	48
HLD	49	192	2	48
TAP	49	192	5
TAP	49	240	4
TAP	49	288	2
HLD	49	288	5	48
TAP	49	336	3
TAP	50	0	2
TAP	50	0	5
TAP	50	48	3
TAP	50	72	4
TAP	50	96	3
TAP	50	144	2
TAP	50	144	5
TAP	50	192	4
TAP	50	216	3
TAP	50	240	4
TAP	50	288	0
TAP	50	312	7
TAP	50	336	0
TAP	50	360	7
HLD	51	0	1	48
HLD	51	0	6	48
HLD	51	96	1	48
HLD	51	96	6	48
HLD	51	192	1	48
TAP	51	192	6
TAP	51	240	7
TAP	51	288	1
HLD	51	288	6	48
TAP	51	336	0
HLD	52	0	1	48
HLD	52	0	6	48
TAP	52	96	1
HLD	52	96	6	48
TAP	52	144	0
HLD	52	192	1	48
TAP	52	192	6
TAP	52	240	7
HLD	52	288	1	48
HLD	52	288	6	48
HLD	53	0	1	48
HLD	53	0	6	48
HLD	53	96	1	48
HLD	53	96	6	48
TAP	53	192	1
HLD	53	192	6	48
TAP	53	240	0
HLD	53	288	1	48
TAP	53	288	6
TAP	53	336	7
TAP	54	0	1
TAP	54	0	6
TAP	54	48	2
TAP	54	72	3
TAP	54	96	1
TAP	54	144	0
TAP	54	144	7
STR	54	192	5
SI_	54	192	5	96	48	1
TAP	54	216	4
TAP	54	240	6
BRK	54	288	0
STR	55	0	0
SI_	55	0	0	96	48	3
TAP	55	0	7
TAP	55	96	0
TAP	55	96	1
TAP	55	192	0
STR	55	192	7
SI_	55	192	7	96	48	4
TAP	55	288	6
TAP	55	288	7
STR	56	0	0
SI_	56	0	0	96	48	4
TAP	56	0	7
TAP	56	96	0
TAP	56	96	1
TAP	56	192	0
STR	56	192	7
SI_	56	192	7	96	48	3
TAP	56	288	6
TAP	56	288	7
STR	57	0	0
SI_	57	0	0	96	48	5
TAP	57	0	7
TAP	57	96	0
TAP	57	96	1
TAP	57	192	0
STR	57	192	7
SI_	57	192	7	96	48	2
TAP	57	288	6
TAP	57	288	7
TAP	58	0	3
TAP	58	0	4
TAP	58	48	2
TAP	58	72	3
TAP	58	96	2
TAP	58	144	3
TAP	58	144	4
TAP	58	192	5
TAP	58	216	4
TAP	58	240	5
TAP	58	288	1
TAP	58	288	6
TAP	58	336	0
TAP	58	336	7
BRK	59	0	0
BRK	59	0	1
TAP	59	48	2
TAP	59	72	3
TAP	59	96	2
TAP	59	144	1
TAP	59	144	4
BRK	59	192	6
BRK	59	192	7
TAP	59	240	5
TAP	59	264	4
TAP	59	288	5
TAP	59	336	3
TAP	59	336	6
BRK	60	0	2
BRK	60	0	3
TAP	60	48	1
TAP	60	72	0
TAP	60	96	1
TAP	60	144	2
TAP	60	144	7
BRK	60	192	4
BRK	60	192	5
TAP	60	240	6
TAP	60	264	7
TAP	60	288	6
TAP	60	336	0
TAP	60	336	5
TAP	61	0	3
TAP	61	24	4
TAP	61	48	3
TAP	61	72	4
TAP	61	96	2
TAP	61	120	5
TAP	61	144	2
TAP	61	168	5
TAP	61	192	1
TAP	61	216	6
TAP	61	240	1
TAP	61	264	6
TAP	61	288	0
TAP	61	312	7
TAP	61	336	0
TAP	61	360	7
BRK	62	0	0
BRK	62	24	0
BRK	62	48	0
BRK	62	72	0
BRK	62	96	0
BRK	62	120	0
BRK	62	144	0
BRK	62	168	0
BST	62	192	0
SF_	62	192	0	96	48	4
TAP	62	240	1
TAP	62	240	7
BRK	62	288	0
TAP	63	0	0
TAP	63	0	7
STR	63	48	6
SI_	63	48	6	96	24	3
TAP	63	72	7
TAP	63	96	6
TAP	63	144	6
TAP	63	144	7
STR	63	192	1
SI_	63	192	1	96	24	4
TAP	63	216	0
TAP	63	240	1
TAP	63	288	0
TAP	63	288	1
STR	63	336	7
SI_	63	336	7	96	24	3
TAP	63	360	0
TAP	64	0	7
TAP	64	48	0
TAP	64	48	7
STR	64	96	0
SI_	64	96	0	96	24	4
TAP	64	120	7
TAP	64	144	0
TAP	64	192	0
TAP	64	192	7
TAP	64	240	7
TAP	64	288	6
TAP	64	336	5
TAP	65	0	3
TAP	65	0	4
STR	65	48	2
SI_	65	48	2	96	24	7
TAP	65	72	3
TAP	65	96	2
TAP	65	144	2
TAP	65	144	3
STR	65	192	5
SI_	65	192	5	96	24	0
TAP	65	216	4
TAP	65	240	5
TAP	65	288	4
TAP	65	288	5
TAP	65	336	1
TAP	66	0	2
TAP	66	24	3
TAP	66	48	2
TAP	66	72	3
TAP	66	96	2
TAP	66	144	5
TAP	66	168	4
TAP	66	192	5
TAP	66	216	4
TAP	66	240	5
TAP	66	288	1
TAP	66	288	6
TAP	66	336	0
TAP	66	336	7
BRK	67	0	1
BRK	67	0	6
STR	67	48	1
SI_	67	48	1	96	24	4
TAP	67	72	0
TAP	67	96	1
TAP	67	144	0
TAP	67	144	1
STR	67	192	6
SI_	67	192	6	96	24	3
TAP	67	216	7
TAP	67	240	6
TAP	67	288	6
TAP	67	288	7
STR	67	336	0
SI_	67	336	0	96	24	4
TAP	67	360	7
TAP	68	0	0
TAP	68	48	0
TAP	68	48	7
STR	68	96	7
SI_	68	96	7	96	24	3
TAP	68	120	0
TAP	68	144	7
TAP	68	192	0
TAP	68	192	7
TAP	68	240	0
TAP	68	288	1
TAP	68	336	2
TAP	69	0	3
TAP	69	0	4
TAP	69	48	4
TAP	69	48	5
TAP	69	96	3
TAP	69	96	4
TAP	69	144	2
TAP	69	144	3
TAP	69	192	3
TAP	69	192	4
TAP	69	240	4
TAP	69	240	5
TAP	69	288	3
TAP	69	288	4
TAP	69	336	2
TAP	69	336	3
TAP	70	0	3
TAP	70	0	4
TAP	70	72	2
TAP	70	72	5
STR	70	144	1
SLR	70	144	1	96	72	7
STR	70	144	6
SLL	70	144	6	96	72	0
BRK	70	192	1
BRK	70	192	6
STR	71	0	6
SI_	71	0	6	96	24	3
TAP	71	24	7
TAP	71	48	5
TAP	71	72	7
TAP	71	96	6
STR	71	144	1
SI_	71	144	1	96	24	4
TAP	71	168	0
TAP	71	192	2
TAP	71	216	0
TAP	71	240	1
TAP	71	288	7
TAP	71	312	6
TAP	71	336	5
STR	72	0	0
SI_	72	0	0	96	24	4
TAP	72	24	7
TAP	72	48	1
TAP	72	72	7
TAP	72	96	0
STR	72	144	7
SI_	72	144	7	96	24	3
TAP	72	168	0
TAP	72	192	6
TAP	72	216	0
TAP	72	240	7
TAP	72	288	0
TAP	72	312	1
TAP	72	336	2
STR	73	0	6
SI_	73	0	6	96	24	3
TAP	73	24	7
TAP	73	48	5
TAP	73	72	7
TAP	73	96	6
STR	73	144	1
SI_	73	144	1	96	24	4
TAP	73	168	0
TAP	73	192	2
TAP	73	216	0
TAP	73	240	1
TAP	73	288	7
TAP	73	312	6
TAP	73	336	5
TAP	74	0	3
TAP	74	0	4
TAP	74	48	0
TAP	74	48	7
TAP	74	72	1
TAP	74	72	6
TAP	74	96	2
TAP	74	96	5
TAP	74	144	1
TAP	74	144	6
STR	74	192	1
SI_	74	192	1	96	48	4
STR	74	192	6
SI_	74	192	6	96	48	3
BRK	74	288	1
BRK	74	288	6
TAP	75	0	2
TAP	75	24	3
TAP	75	48	2
TAP	75	72	3
TAP	75	96	1
TAP	75	96	4
TAP	75	144	5
TAP	75	168	4
TAP	75	192	5
TAP	75	216	4
TAP	75	240	3
TAP	75	240	6
TAP	75	288	0
TAP	75	312	7
TAP	75	336	0
TAP	75	360	7
TAP	76	0	1
TAP	76	24	0
TAP	76	48	1
TAP	76	72	0
TAP	76	96	2
TAP	76	96	7
TAP	76	144	6
TAP	76	168	7
TAP	76	192	6
TAP	76	216	7
TAP	76	240	0
TAP	76	240	5
TAP	76	288	3
TAP	76	312	4
TAP	76	336	3
TAP	76	360	4
TAP	77	0	1
TAP	77	24	3
TAP	77	48	2
TAP	77	72	6
TAP	77	96	4
TAP	77	120	5
TAP	77	144	0
TAP	77	168	2
TAP	77	192	1
TAP	77	216	7
TAP	77	240	5
TAP	77	264	6
TAP	77	288	0
TAP	77	300	1
TAP	77	312	2
TAP	77	324	3
TAP	77	336	4
TAP	77	348	5
TAP	77	360	6
TAP	77	372	7
TAP	78	0	0
TAP	78	0	4
TAP	78	72	1
TAP	78	72	5
TAP	78	144	2
TAP	78	144	6
HLD	78	192	3	96
HLD	78	192	7	96
STR	79	0	0
SI_	79	0	0	96	48	4
STR	79	144	7
SI_	79	144	7	96	48	5
SLR	79	144	7	96	48	3
STR	80	0	5
SI_	80	0	5	96	48	1
STR	80	144	7
SI_	80	144	7	96	48	2
SI_	80	144	7	96	48	4
STR	81	0	1
SV_	81	0	1	96	48	7
STR	81	144	5
SV_	81	144	5	96	48	3
STR	82	0	7
SI_	82	0	7	96	96	3
TAP	82	144	7
TAP	82	192	4
TAP	82	216	5
TAP	82	240	6
TAP	82	264	7
TAP	82	288	0
TAP	82	312	1
TAP	82	336	2
TAP	82	360	3
TAP	83	0	4
TAP	83	0	5
TAP	83	72	4
TAP	83	96	4
TAP	83	96	5
TAP	83	144	6
TAP	83	192	4
TAP	83	192	5
TAP	83	240	3
TAP	83	288	4
TAP	83	288	5
TAP	83	336	6
TAP	84	0	2
TAP	84	0	3
TAP	84	72	3
TAP	84	96	2
TAP	84	96	3
TAP	84	144	1
TAP	84	192	2
TAP	84	192	3
TAP	84	240	4
TAP	84	288	2
TAP	84	288	3
TAP	84	336	1
HLD	85	0	7	576
BRK	85	96	0
BRK	85	192	5
BRK	85	240	5
BRK	85	336	1
BRK	86	48	4
BRK	86	96	4
BST	86	192	1
SI_	86	192	1	96	48	7
SV_	86	192	1	96	48	3

T_REC_TAP	634
T_REC_BRK	69
T_REC_XTP	0
T_REC_HLD	57
T_REC_XHO	0
T_REC_STR	73
T_REC_BST	2
T_REC_XST	0
T_REC_TTP	0
T_REC_THO	0
T_REC_SLD	79
T_REC_ALL	914
T_NUM_TAP	707
T_NUM_BRK	71
T_NUM_HLD	57
T_NUM_SLD	79
T_NUM_ALL	914
T_JUDGE_TAP	778
T_JUDGE_HLD	86
T_JUDGE_SLD	79
T_JUDGE_ALL	943
TTM_EACHPAIRS	212
TTM_SCR_TAP	353500
TTM_SCR_BRK	184600
TTM_SCR_HLD	57000
TTM_SCR_SLD	118500
TTM_SCR_ALL	713600
TTM_SCR_S	685350
TTM_SCR_SS	706500
TTM_RAT_ACV	10100

