VERSION	0.00.00	1.03.00
FES_MODE	0
BPM_DEF	180.000	180.000	180.000	180.000
MET_DEF	4	4
RESOLUTION	384
CLK_DEF	384
COMPATIBLE_CODE	MA2

BPM	0	0	180.000
MET	0	0	4	4

HLD	3	0	0	96
HLD	3	0	1	96
HLD	3	144	2	96
HLD	3	144	7	96
TAP	3	288	2
TAP	3	288	7
HLD	4	0	6	96
HLD	4	0	7	96
HLD	4	144	0	96
HLD	4	144	5	96
TAP	4	288	0
TAP	4	288	5
HLD	5	0	0	96
HLD	5	0	1	96
HLD	5	144	3	96
HLD	5	144	6	96
TAP	5	288	3
TAP	5	288	6
HLD	6	0	6	96
HLD	6	0	7	96
HLD	6	144	1	96
HLD	6	144	4	96
TAP	6	288	1
TAP	6	288	4
TAP	7	0	4
TAP	7	0	5
TAP	7	96	2
TAP	7	96	3
TAP	7	192	5
TAP	7	240	4
TAP	7	288	5
TAP	8	0	2
TAP	8	48	3
TAP	8	96	2
STR	8	192	0
SI_	8	192	0	96	48	4
TAP	9	0	2
TAP	9	0	3
TAP	9	96	4
TAP	9	96	5
TAP	9	192	2
TAP	9	240	3
TAP	9	288	2
STR	10	0	7
SI_	10	0	7	96	48	3
STR	10	96	0
SI_	10	96	0	96	48	4
STR	10	192	6
SI_	10	192	6	96	48	3
BRK	10	288	1
TAP	11	0	3
TAP	11	0	5
TAP	11	96	1
TAP	11	144	0
TAP	11	192	1
STR	11	288	1
SI_	11	288	1	96	48	4
TAP	12	96	6
TAP	12	144	7
TAP	12	192	6
STR	12	288	6
SI_	12	288	6	96	48	3
TAP	13	96	2
TAP	13	144	3
TAP	13	192	2
STR	13	288	2
SI_	13	288	2	96	48	7
TAP	14	96	5
TAP	14	144	4
TAP	14	192	5
STR	14	288	5
SI_	14	288	5	96	48	0
BRK	15	0	1
TAP	15	96	1
TAP	15	144	0
TAP	15	192	1
TAP	15	240	0
STR	15	288	1
SV_	15	288	1	96	48	4
TAP	16	96	6
TAP	16	144	7
TAP	16	192	6
TAP	16	240	7
STR	16	288	6
SV_	16	288	6	96	48	3
TAP	17	96	2
TAP	17	144	3
TAP	17	192	2
TAP	17	240	3
STR	17	288	2
SV_	17	288	2	96	48	7
TAP	18	96	5
TAP	18	144	4
TAP	18	192	5
TAP	18	240	4
STR	18	288	5
SV_	18	288	5	96	48	0
TAP	19	0	2
HLD	19	96	1	192
TAP	19	192	0
TAP	19	240	0
TAP	19	288	0
TAP	20	0	4
TAP	20	0	5
TAP	20	96	2
TAP	20	96	3
TAP	20	192	0
TAP	20	192	7
TAP	20	240	6
TAP	20	288	5
TAP	20	336	4
TAP	21	0	5
HLD	21	96	6	192
TAP	21	192	7
TAP	21	240	7
TAP	21	288	7
TAP	22	0	2
TAP	22	0	3
TAP	22	96	4
TAP	22	96	5
TAP	22	192	0
TAP	22	192	7
TAP	22	240	1
TAP	22	288	2
TAP	22	336	3
TAP	23	0	2
HLD	23	96	1	192
TAP	23	192	0
TAP	23	240	0
TAP	23	288	0
TAP	24	0	4
TAP	24	0	5
TAP	24	96	2
TAP	24	96	3
TAP	24	192	4
TAP	24	192	5
TAP	24	240	6
TAP	24	288	7
TAP	24	336	0
TAP	25	0	1
HLD	25	96	4	192
TAP	25	192	3
TAP	25	240	3
TAP	25	288	3
STR	26	0	6
SI_	26	0	6	96	48	3
STR	26	96	1
SI_	26	96	1	96	48	4
STR	26	192	7
SI_	26	192	7	96	48	3
BRK	26	288	0
TAP	27	0	2
TAP	27	48	2
TAP	27	96	0
TAP	27	144	0
STR	27	192	1
SI_	27	192	1	96	48	4
SI_	27	192	1	96	48	6
TAP	28	0	5
TAP	28	48	5
TAP	28	96	7
TAP	28	144	7
STR	28	192	6
SI_	28	192	6	96	48	1
SI_	28	192	6	96	48	3
TAP	29	0	2
TAP	29	48	2
TAP	29	96	6
TAP	29	144	6
STR	29	192	0
SUL	29	192	0	96	48	4
SUR	29	192	0	96	48	4
TAP	30	0	5
TAP	30	48	5
TAP	30	96	1
TAP	30	144	1
STR	30	192	7
SUL	30	192	7	96	48	3
SUR	30	192	7	96	48	3
TAP	31	0	1
TAP	31	48	5
TAP	31	96	2
TAP	31	144	6
STR	31	192	3
SI_	31	192	3	96	48	5
SI_	31	192	3	96	48	7
TAP	32	0	6
TAP	32	48	1
TAP	32	96	5
TAP	32	144	0
STR	32	192	4
SI_	32	192	4	96	48	0
SI_	32	192	4	96	48	2
TAP	33	0	0
TAP	33	0	6
TAP	33	48	0
TAP	33	48	6
TAP	33	96	5
TAP	33	96	7
TAP	33	192	1
TAP	33	192	7
TAP	33	240	1
TAP	33	240	7
TAP	33	288	0
TAP	33	288	2
TAP	34	0	1
TAP	34	0	6
TAP	34	72	3
TAP	34	72	4
TAP	34	144	0
TAP	34	144	7
BRK	34	192	0
BRK	34	192	7
HLD	35	0	0	288
HLD	35	0	1	672
HLD	36	0	3	672
HLD	37	0	5	288
TAP	38	0	6
TAP	38	0	7
TAP	38	96	6
TAP	38	96	7
TAP	38	144	6
TAP	38	144	7
TAP	38	240	3
TAP	38	240	4
TAP	38	288	3
TAP	38	288	4
TAP	39	0	0
HLD	39	0	7	576
TAP	39	96	4
TAP	39	192	1
TAP	39	240	1
TAP	39	336	3
TAP	40	48	6
TAP	40	96	6
TAP	40	192	2
TAP	40	288	0
TAP	40	288	1
HLD	41	0	0	576
TAP	41	0	7
TAP	41	96	3
TAP	41	192	6
TAP	41	240	6
TAP	41	336	4
TAP	42	48	1
TAP	42	96	1
TAP	42	192	5
BRK	42	288	6
BRK	42	288	7
TAP	43	0	3
HLD	43	0	4	576
TAP	43	96	7
TAP	43	192	2
TAP	43	240	2
TAP	43	336	0
TAP	44	48	5
TAP	44	96	5
TAP	44	192	1
TAP	44	288	2
TAP	44	288	3
STR	45	0	0
SCR	45	0	0	96	480	4
TAP	45	0	5
TAP	45	96	5
TAP	45	192	6
TAP	45	288	6
BRK	46	0	7
BRK	46	96	0
BRK	46	192	1
TAP	47	0	3
TAP	47	0	4
TAP	47	96	3
TAP	47	96	4
TAP	47	192	3
TAP	47	192	4
TAP	47	240	2
TAP	47	288	3
TAP	47	288	4
TAP	47	336	5
TAP	48	0	3
TAP	48	0	4
TAP	48	96	3
TAP	48	96	4
TAP	48	144	2
TAP	48	192	0
TAP	48	192	1
TAP	48	288	4
TAP	48	288	5
TAP	49	0	3
TAP	49	0	4
TAP	49	96	3
TAP	49	96	4
TAP	49	192	3
TAP	49	192	4
TAP	49	240	5
TAP	49	288	3
TAP	49	288	4
TAP	49	336	2
TAP	50	0	3
TAP	50	0	4
TAP	50	96	3
TAP	50	96	4
TAP	50	144	5
TAP	50	192	6
TAP	50	192	7
TAP	50	288	2
TAP	50	288	3
TAP	51	0	2
HLD	51	0	4	288
TAP	51	96	2
TAP	51	192	7
TAP	51	240	7
TAP	51	288	7
HLD	52	0	3	288
TAP	52	0	5
TAP	52	96	5
TAP	52	192	0
TAP	52	240	0
TAP	52	288	0
TAP	53	0	2
HLD	53	0	7	288
TAP	53	96	2
TAP	53	192	4
TAP	53	240	4
TAP	53	288	4
STR	54	0	6
SI_	54	0	6	96	48	2
STR	54	96	1
SI_	54	96	1	96	48	5
STR	54	192	7
SI_	54	192	7	96	48	3
BRK	54	288	0
TAP	55	0	0
TAP	55	0	1
TAP	55	96	2
TAP	55	96	7
STR	55	192	3
SCL	55	192	3	96	48	0
TAP	55	192	5
TAP	55	240	5
TAP	55	288	5
TAP	56	0	6
TAP	56	0	7
TAP	56	96	0
TAP	56	96	5
TAP	56	192	2
STR	56	192	4
SCR	56	192	4	96	48	7
TAP	56	240	2
TAP	56	288	2
TAP	57	0	0
TAP	57	0	1
TAP	57	96	3
TAP	57	96	7
STR	57	192	2
SCL	57	192	2	96	48	7
TAP	57	192	4
TAP	57	240	4
TAP	57	288	4
TAP	58	0	6
TAP	58	0	7
TAP	58	96	0
TAP	58	96	4
TAP	58	192	3
STR	58	192	5
SCR	58	192	5	96	48	0
TAP	58	240	3
TAP	58	288	3
TAP	59	0	0
TAP	59	0	1
TAP	59	96	2
TAP	59	96	7
STR	59	192	0
SCR	59	192	0	96	48	3
TAP	59	192	5
TAP	59	240	5
TAP	59	288	5
TAP	60	0	6
TAP	60	0	7
TAP	60	96	0
TAP	60	96	5
TAP	60	192	2
STR	60	192	7
SCL	60	192	7	96	48	4
TAP	60	240	2
TAP	60	288	2
TAP	61	0	0
TAP	61	0	1
TAP	61	96	2
TAP	61	96	7
STR	61	192	1
SCR	61	192	1	96	48	4
TAP	61	192	6
TAP	61	240	6
TAP	61	288	6
TAP	62	0	7
TAP	62	48	0
TAP	62	96	7
TAP	62	144	0
BRK	62	192	1
BRK	62	192	6
TAP	63	0	0
TAP	63	48	0
TAP	63	96	1
TAP	63	96	7
HLD	63	192	4	72
HLD	63	264	3	72
TAP	63	336	2
STR	64	0	1
SI_	64	0	1	96	48	5
STR	64	96	0
SI_	64	96	0	96	48	4
STR	64	192	7
SI_	64	192	7	96	48	3
TAP	64	288	6
TAP	65	0	7
TAP	65	48	7
TAP	65	96	0
TAP	65	96	6
HLD	65	192	3	72
HLD	65	264	4	72
TAP	65	336	5
STR	66	0	6
SI_	66	0	6	96	48	2
STR	66	96	7
SI_	66	96	7	96	48	3
STR	66	192	0
SI_	66	192	0	96	48	4
TAP	66	288	1
BRK	67	0	0
BRK	67	0	7
TAP	67	96	1
TAP	67	96	6
HLD	67	192	4	72
HLD	67	264	3	72
TAP	67	336	2
STR	68	0	1
SI_	68	0	1	96	48	5
STR	68	96	0
SI_	68	96	0	96	48	4
STR	68	192	7
SI_	68	192	7	96	48	3
TAP	68	288	6
STR	69	0	2
SCL	69	0	2	96	48	7
TAP	69	48	2
STR	69	192	5
SCR	69	192	5	96	48	0
TAP	69	240	5
TAP	70	0	1
TAP	70	48	1
TAP	70	96	6
TAP	70	144	6
TAP	70	192	0
TAP	70	240	0
BRK	70	288	7
TAP	71	0	2
TAP	71	48	3
TAP	71	96	1
TAP	71	96	4
TAP	71	192	3
HLD	71	192	6	72
HLD	71	264	7	72
TAP	71	336	0
TAP	72	48	2
TAP	72	48	3
TAP	72	96	2
TAP	72	96	3
TAP	72	192	1
TAP	72	192	5
TAP	72	240	2
TAP	72	240	6
TAP	72	288	3
TAP	72	288	7
STR	73	0	2
SI_	73	0	2	96	48	7
STR	73	0	3
SI_	73	0	3	96	48	7
STR	73	192	4
SI_	73	192	4	96	48	0
STR	73	192	5
SI_	73	192	5	96	48	0
TAP	74	0	3
TAP	74	48	4
TAP	74	96	5
TAP	74	144	6
BST	74	192	7
SF_	74	192	7	96	48	3
TAP	75	0	2
TAP	75	0	6
TAP	75	48	2
TAP	75	48	6
TAP	75	96	2
TAP	75	96	6
STR	75	192	0
SI_	75	192	0	96	48	5
STR	75	192	1
SI_	75	192	1	96	48	4
TAP	76	0	1
TAP	76	0	5
TAP	76	48	1
TAP	76	48	5
TAP	76	96	1
TAP	76	96	5
STR	76	192	6
SI_	76	192	6	96	48	3
STR	76	192	7
SI_	76	192	7	96	48	2
TAP	77	0	0
TAP	77	0	1
TAP	77	48	0
TAP	77	48	1
TAP	77	96	3
TAP	77	96	6
TAP	77	192	6
TAP	77	192	7
TAP	77	240	6
TAP	77	240	7
TAP	77	288	1
TAP	77	288	4
TAP	78	0	2
TAP	78	0	6
TAP	78	72	3
TAP	78	72	4
TAP	78	144	0
TAP	78	144	7
BRK	78	192	0
BRK	78	192	7
STR	79	0	2
SLL	79	0	2	96	144	4
STR	79	0	5
SLR	79	0	5	96	144	3
STR	80	0	7
SI_	80	0	7	96	96	2
SI_	80	0	7	96	96	5
STR	81	0	1
SV_	81	0	1	96	96	3
STR	81	0	7
SV_	81	0	7	96	96	5
STR	82	0	0
SI_	82	0	0	96	96	4
TAP	83	0	0
TAP	83	0	1
TAP	83	96	3
TAP	83	144	4
TAP	83	192	3
TAP	83	240	4
TAP	83	288	2
TAP	83	288	5
STR	84	0	1
SI_	84	0	1	96	48	6
STR	84	96	5
SI_	84	96	5	96	48	2
STR	84	192	0
SI_	84	192	0	96	48	5
BRK	84	288	6
HLD	85	0	7	480
TAP	85	96	0
TAP	85	192	5
TAP	85	240	5
TAP	85	336	1
TAP	86	48	4
TAP	86	96	4
BST	86	192	1
SV_	86	192	1	96	48	3
BST	86	192	6
SI_	86	192	6	96	48	1

T_REC_TAP	376
T_REC_BRK	19
T_REC_XTP	0
T_REC_HLD	39
T_REC_XHO	0
T_REC_STR	60
T_REC_BST	3
T_REC_XST	0
T_REC_TTP	0
T_REC_THO	0
T_REC_SLD	70
T_REC_ALL	567
T_NUM_TAP	436
T_NUM_BRK	22
T_NUM_HLD	39
T_NUM_SLD	70
T_NUM_ALL	567
T_JUDGE_TAP	458
T_JUDGE_HLD	168
T_JUDGE_SLD	70
T_JUDGE_ALL	696
TTM_EACHPAIRS	126
TTM_SCR_TAP	218000
TTM_SCR_BRK	57200
TTM_SCR_HLD	39000
TTM_SCR_SLD	105000
TTM_SCR_ALL	419200
TTM_SCR_S	404500
TTM_SCR_SS	417000
TTM_RAT_ACV	10052

