VERSION	0.00.00	1.03.00
FES_MODE	0
BPM_DEF	180.000	180.000	180.000	180.000
MET_DEF	4	4
RESOLUTION	384
CLK_DEF	384
COMPATIBLE_CODE	MA2

BPM	0	0	180.000
MET	0	0	4	4

STR	3	0	0
SI_	3	0	0	96	120	4
STR	3	0	1
SI_	3	0	1	96	120	3
STR	4	0	0
SI_	4	0	0	96	120	4
STR	4	0	7
SI_	4	0	7	96	120	5
STR	5	0	1
SI_	5	0	1	96	120	3
STR	5	0	7
SI_	5	0	7	96	120	5
STR	6	0	0
SF_	6	0	0	96	144	4
TAP	7	0	4
TAP	7	96	4
TAP	7	192	3
TAP	7	192	5
TAP	8	0	3
TAP	8	96	3
TAP	8	192	2
TAP	8	192	4
TAP	9	0	5
TAP	9	96	5
TAP	9	192	4
TAP	9	192	6
TAP	10	0	2
TAP	10	96	2
TAP	10	192	1
TAP	10	192	3
BRK	10	288	0
BRK	10	288	4
HLD	11	0	5	96
TAP	11	96	4
TAP	11	192	5
HLD	12	0	2	96
TAP	12	96	3
TAP	12	192	2
HLD	13	0	4	96
TAP	13	96	3
TAP	13	192	4
TAP	14	0	3
TAP	14	0	4
TAP	14	96	3
TAP	14	96	4
TAP	14	192	2
TAP	14	192	5
TAP	14	288	1
TAP	14	288	6
BRK	15	0	0
BRK	15	0	7
TAP	15	96	1
TAP	15	192	0
HLD	16	0	6	96
TAP	16	96	7
TAP	16	192	6
HLD	17	0	0	96
TAP	17	96	7
TAP	17	192	0
TAP	18	0	0
TAP	18	0	7
TAP	18	96	0
TAP	18	96	7
TAP	18	192	1
TAP	18	192	6
HLD	18	288	3	96
HLD	18	288	4	96
TAP	19	96	3
TAP	19	192	2
HLD	20	0	5	96
TAP	20	96	4
TAP	20	192	5
TAP	20	288	3
TAP	20	288	6
TAP	21	0	2
TAP	21	0	7
TAP	21	96	0
TAP	21	192	1
HLD	22	0	6	96
TAP	22	96	7
TAP	22	192	6
TAP	22	288	0
TAP	22	288	5
TAP	23	0	1
TAP	23	0	4
TAP	23	96	3
TAP	23	192	2
HLD	24	0	3	96
TAP	24	96	4
TAP	24	192	3
TAP	24	288	2
TAP	24	288	5
HLD	25	0	0	96
HLD	25	0	1	96
HLD	25	192	6	96
HLD	25	192	7	96
HLD	26	0	0	96
HLD	26	0	7	96
TAP	26	192	0
TAP	26	192	7
BRK	26	288	1
BRK	26	288	6
TAP	27	0	2
TAP	27	96	1
TAP	27	96	3
TAP	27	192	6
TAP	27	288	5
TAP	27	288	7
TAP	28	0	1
TAP	28	0	3
TAP	28	96	5
TAP	28	96	7
TAP	28	192	1
TAP	28	192	3
TAP	28	288	4
TAP	29	0	5
TAP	29	96	4
TAP	29	96	6
TAP	29	192	1
TAP	29	288	0
TAP	29	288	2
TAP	30	0	5
TAP	30	48	5
TAP	30	96	4
TAP	30	192	1
TAP	30	240	1
TAP	30	288	0
TAP	31	0	5
TAP	31	96	4
TAP	31	96	6
TAP	31	192	1
TAP	31	288	0
TAP	31	288	2
TAP	32	0	4
TAP	32	0	6
TAP	32	96	0
TAP	32	96	2
TAP	32	192	4
TAP	32	192	6
TAP	32	288	3
TAP	33	0	2
TAP	33	96	1
TAP	33	96	3
TAP	33	192	6
TAP	33	288	5
TAP	33	288	7
TAP	34	0	3
TAP	34	0	4
TAP	34	96	2
TAP	34	96	5
BRK	34	192	1
BRK	34	192	6
STR	35	0	0
SXL	35	0	0	96	432	4
STR	37	0	4
SXL	37	0	4	96	432	0
TAP	39	0	0
HLD	39	0	1	96
TAP	39	96	7
TAP	39	192	0
HLD	39	192	1	96
TAP	39	288	7
TAP	40	0	0
HLD	40	0	1	96
TAP	40	96	6
TAP	40	192	6
TAP	40	192	7
HLD	41	0	6	96
TAP	41	0	7
TAP	41	96	0
HLD	41	192	6	96
TAP	41	192	7
TAP	41	288	0
HLD	42	0	6	96
TAP	42	0	7
TAP	42	96	1
TAP	42	192	0
TAP	42	192	1
HLD	43	0	2	96
TAP	43	0	3
TAP	43	96	4
HLD	43	192	2	96
TAP	43	192	3
TAP	43	288	4
HLD	44	0	2	96
TAP	44	0	3
TAP	44	96	5
TAP	44	192	4
TAP	44	192	5
TAP	45	0	4
HLD	45	0	5	96
TAP	45	96	3
TAP	45	192	4
HLD	45	192	5	96
TAP	45	288	2
TAP	46	0	2
TAP	46	0	3
TAP	46	96	4
TAP	46	96	5
TAP	46	192	2
TAP	46	192	5
STR	47	0	3
SCL	47	0	3	96	480	4
STR	49	0	4
SCR	49	0	4	96	480	3
TAP	51	0	2
TAP	51	0	3
TAP	51	96	2
TAP	51	96	3
TAP	51	192	1
TAP	51	192	4
TAP	52	0	4
TAP	52	0	5
TAP	52	96	4
TAP	52	96	5
TAP	52	192	3
TAP	52	192	6
TAP	53	0	3
TAP	53	0	4
TAP	53	96	3
TAP	53	96	4
TAP	53	192	2
TAP	53	192	5
TAP	54	0	0
TAP	54	0	7
TAP	54	96	0
TAP	54	96	7
BRK	54	192	2
BRK	54	192	5
HLD	55	0	4	192
HLD	55	192	3	192
HLD	56	0	2	192
TAP	56	192	1
HLD	57	0	2	192
HLD	57	192	1	192
HLD	58	0	0	192
TAP	58	192	7
TAP	59	0	0
TAP	59	0	1
TAP	59	192	0
TAP	59	192	7
TAP	60	0	6
TAP	60	0	7
TAP	60	192	5
TAP	60	192	6
TAP	61	0	4
TAP	61	0	5
TAP	61	192	3
TAP	61	192	4
TAP	62	0	3
TAP	62	48	4
TAP	62	96	3
TAP	62	144	4
TAP	62	192	3
BRK	62	288	2
BRK	62	288	5
TAP	63	0	5
TAP	63	96	4
TAP	63	96	6
TAP	63	192	1
TAP	63	288	0
TAP	63	288	2
TAP	64	0	4
TAP	64	0	6
TAP	64	96	0
TAP	64	96	2
TAP	64	192	4
TAP	64	192	6
TAP	64	288	3
TAP	65	0	2
TAP	65	96	1
TAP	65	96	3
TAP	65	192	6
TAP	65	288	5
TAP	65	288	7
TAP	66	0	2
TAP	66	48	2
TAP	66	96	3
TAP	66	192	6
TAP	66	240	6
TAP	66	288	7
TAP	67	0	2
TAP	67	96	1
TAP	67	96	3
TAP	67	192	6
TAP	67	288	5
TAP	67	288	7
TAP	68	0	1
TAP	68	0	3
TAP	68	96	5
TAP	68	96	7
TAP	68	192	1
TAP	68	192	3
TAP	68	288	4
TAP	69	0	5
TAP	69	96	4
TAP	69	96	6
TAP	69	192	1
TAP	69	288	0
TAP	69	288	2
TAP	70	0	3
TAP	70	0	4
TAP	70	96	2
TAP	70	96	5
HLD	70	192	1	96
HLD	70	192	6	96
TAP	71	0	2
TAP	71	96	2
TAP	71	96	3
TAP	71	192	6
TAP	71	288	6
TAP	71	288	7
TAP	72	0	2
TAP	72	0	3
TAP	72	96	6
TAP	72	96	7
TAP	72	192	2
TAP	72	192	3
TAP	72	288	4
TAP	73	0	5
TAP	73	96	4
TAP	73	96	5
TAP	73	192	1
TAP	73	288	0
TAP	73	288	1
TAP	74	0	7
TAP	74	48	7
TAP	74	96	0
TAP	74	144	0
TAP	74	192	7
BRK	74	288	1
BRK	74	288	6
TAP	75	0	6
TAP	75	0	7
TAP	75	96	4
TAP	75	96	5
TAP	75	192	2
TAP	75	192	3
TAP	75	288	0
TAP	75	288	1
TAP	76	0	0
TAP	76	0	7
TAP	76	96	1
TAP	76	96	2
TAP	76	192	3
TAP	76	192	4
TAP	76	288	5
TAP	76	288	6
TAP	77	0	0
TAP	77	0	1
TAP	77	96	5
TAP	77	96	6
TAP	77	192	2
TAP	77	192	3
TAP	77	288	6
TAP	77	288	7
TAP	78	0	0
TAP	78	0	7
TAP	78	96	1
TAP	78	96	6
HLD	78	192	2	96
HLD	78	192	5	96
STR	79	0	6
SI_	79	0	6	96	120	4
STR	79	0	7
SI_	79	0	7	96	120	3
STR	80	0	0
SI_	80	0	0	96	120	2
STR	80	0	7
SI_	80	0	7	96	120	3
STR	81	0	0
SI_	81	0	0	96	120	2
STR	81	0	6
SI_	81	0	6	96	120	4
STR	82	0	7
SF_	82	0	7	96	144	3
TAP	83	0	2
TAP	83	96	2
TAP	83	192	1
TAP	83	192	3
TAP	84	0	5
TAP	84	96	5
TAP	84	192	4
TAP	84	192	6
TAP	85	0	1
TAP	85	96	1
TAP	85	192	0
TAP	85	192	2
TAP	86	0	6
TAP	86	96	6
TAP	86	192	5
TAP	86	192	7
BRK	86	288	0
BRK	86	288	4

T_REC_TAP	305
T_REC_BRK	16
T_REC_XTP	0
T_REC_HLD	37
T_REC_XHO	0
T_REC_STR	18
T_REC_BST	0
T_REC_XST	0
T_REC_TTP	0
T_REC_THO	0
T_REC_SLD	18
T_REC_ALL	394
T_NUM_TAP	323
T_NUM_BRK	16
T_NUM_HLD	37
T_NUM_SLD	18
T_NUM_ALL	394
T_JUDGE_TAP	339
T_JUDGE_HLD	86
T_JUDGE_SLD	18
T_JUDGE_ALL	443
TTM_EACHPAIRS	128
TTM_SCR_TAP	161500
TTM_SCR_BRK	41600
TTM_SCR_HLD	37000
TTM_SCR_SLD	27000
TTM_SCR_ALL	267100
TTM_SCR_S	257550
TTM_SCR_SS	265500
TTM_RAT_ACV	10060

