VERSION	0.00.00	1.03.00
FES_MODE	0
BPM_DEF	180.000	180.000	180.000	180.000
MET_DEF	4	4
RESOLUTION	384
CLK_DEF	384
COMPATIBLE_CODE	MA2

BPM	0	0	180.000
MET	0	0	4	4

STR	3	0	0
SI_	3	0	0	96	288	3
STR	5	0	7
SI_	5	0	7	96	288	4
TAP	7	0	0
TAP	7	192	0
TAP	8	0	7
TAP	8	192	7
TAP	9	0	0
TAP	9	192	0
TAP	10	0	7
TAP	10	96	7
BRK	10	192	0
BRK	10	192	7
TAP	11	0	0
TAP	11	192	0
TAP	12	0	1
TAP	12	192	1
TAP	13	0	2
TAP	13	192	2
TAP	14	0	3
TAP	14	192	3
TAP	15	0	3
TAP	15	0	4
TAP	15	192	4
TAP	16	0	4
TAP	16	192	5
TAP	17	0	5
TAP	17	192	6
TAP	18	0	6
TAP	18	192	7
TAP	19	0	0
TAP	19	0	7
TAP	19	192	6
TAP	20	0	5
TAP	20	96	5
TAP	20	192	5
TAP	21	0	4
TAP	21	192	4
TAP	22	0	3
TAP	22	96	3
TAP	22	192	3
TAP	23	0	2
TAP	23	192	2
TAP	24	0	1
TAP	24	96	1
TAP	24	192	1
TAP	25	0	0
TAP	25	192	0
TAP	26	0	7
TAP	26	96	7
TAP	26	192	0
TAP	26	192	7
TAP	27	0	0
TAP	27	96	0
TAP	27	192	0
TAP	28	0	1
TAP	28	96	1
TAP	28	192	1
TAP	29	0	2
TAP	29	96	2
TAP	29	192	2
TAP	30	0	3
TAP	30	96	3
TAP	30	192	3
TAP	30	192	4
TAP	31	0	4
TAP	31	96	4
TAP	31	192	4
TAP	32	0	5
TAP	32	96	5
TAP	32	192	5
TAP	33	0	6
TAP	33	96	6
TAP	33	192	6
TAP	34	0	7
TAP	34	96	7
TAP	34	192	0
TAP	34	192	7
HLD	35	0	1	576
HLD	36	0	0	192
HLD	37	0	6	576
HLD	38	0	7	192
TAP	39	0	0
TAP	39	192	0
TAP	39	288	0
TAP	40	0	7
TAP	40	192	7
TAP	40	288	7
TAP	41	0	6
TAP	41	192	6
TAP	41	288	6
TAP	42	0	5
TAP	42	192	5
TAP	42	288	5
TAP	43	0	4
TAP	43	192	4
TAP	43	288	4
TAP	44	0	3
TAP	44	192	3
TAP	44	288	3
TAP	45	0	2
TAP	45	192	2
TAP	45	288	2
TAP	46	0	1
BRK	46	192	0
BRK	46	192	1
STR	47	0	7
SI_	47	0	7	96	288	3
STR	49	0	0
SI_	49	0	0	96	288	4
STR	51	0	7
SI_	51	0	7	96	288	2
STR	53	0	0
SI_	53	0	0	96	288	5
TAP	55	0	7
TAP	55	96	7
TAP	55	192	0
TAP	55	192	6
TAP	56	0	0
TAP	56	96	0
TAP	56	192	1
TAP	56	192	7
STR	57	0	7
SI_	57	0	7	96	288	3
TAP	59	0	7
TAP	59	96	7
TAP	59	192	0
TAP	59	192	6
TAP	60	0	0
TAP	60	96	0
TAP	60	192	1
TAP	60	192	7
TAP	61	0	7
TAP	61	96	7
TAP	61	192	0
TAP	61	192	6
TAP	62	0	0
TAP	62	96	0
TAP	62	192	0
BRK	62	288	0
TAP	63	0	7
TAP	63	96	7
TAP	63	192	7
TAP	64	0	0
TAP	64	96	0
TAP	64	192	0
TAP	65	0	1
TAP	65	96	1
TAP	65	192	1
TAP	65	288	1
TAP	66	0	2
TAP	66	96	2
TAP	66	192	2
TAP	66	192	3
TAP	67	0	3
TAP	67	96	3
TAP	67	192	3
TAP	68	0	4
TAP	68	96	4
TAP	68	192	4
TAP	69	0	5
TAP	69	96	5
TAP	69	192	5
TAP	69	288	5
TAP	70	0	6
TAP	70	96	6
TAP	70	192	6
TAP	70	192	7
TAP	71	0	0
TAP	71	96	0
TAP	71	192	7
TAP	71	288	7
TAP	72	0	6
TAP	72	96	6
TAP	72	192	6
TAP	72	192	7
TAP	73	0	5
TAP	73	96	5
TAP	73	192	4
TAP	73	288	4
TAP	74	0	3
TAP	74	96	3
TAP	74	192	3
TAP	74	192	4
TAP	75	0	2
TAP	75	96	2
TAP	75	192	1
TAP	75	288	1
TAP	76	0	0
TAP	76	96	0
TAP	76	192	0
TAP	76	192	7
TAP	77	0	6
TAP	77	96	6
TAP	77	192	5
TAP	77	288	5
TAP	78	0	3
TAP	78	0	4
TAP	78	96	3
TAP	78	96	4
BRK	78	192	3
BRK	78	192	4
STR	79	0	3
SI_	79	0	3	96	288	0
STR	81	0	4
SI_	81	0	4	96	288	7
TAP	83	0	5
TAP	83	96	5
TAP	83	192	4
TAP	83	288	4
TAP	84	0	3
TAP	84	96	3
TAP	84	192	2
TAP	85	0	0
TAP	85	0	1
TAP	85	96	0
TAP	85	96	1
TAP	85	192	0
TAP	85	192	1
TAP	86	0	6
TAP	86	0	7
TAP	86	96	6
TAP	86	96	7
TAP	86	192	6
TAP	86	192	7
BRK	86	288	6
BRK	86	288	7

T_REC_TAP	197
T_REC_BRK	9
T_REC_XTP	0
T_REC_HLD	4
T_REC_XHO	0
T_REC_STR	9
T_REC_BST	0
T_REC_XST	0
T_REC_TTP	0
T_REC_THO	0
T_REC_SLD	9
T_REC_ALL	228
T_NUM_TAP	206
T_NUM_BRK	9
T_NUM_HLD	4
T_NUM_SLD	9
T_NUM_ALL	228
T_JUDGE_TAP	215
T_JUDGE_HLD	32
T_JUDGE_SLD	9
T_JUDGE_ALL	256
TTM_EACHPAIRS	27
TTM_SCR_TAP	103000
TTM_SCR_BRK	23400
TTM_SCR_HLD	4000
TTM_SCR_SLD	13500
TTM_SCR_ALL	143900
TTM_SCR_S	138750
TTM_SCR_SS	143000
TTM_RAT_ACV	10062

